Начать новую тему Ответить на тему
Статистика раздачи
Размер: 244.92 МБ | Добавлен: 07 сен 2019, 10:30 | Скачали: 0
Сидеров: 3  [0 байт/сек]    Личеров: 1  [0 байт/сек]
Пред. тема | След. тема 

Автор
Сообщение

СообщениеДобавлено: 07 сен 2019, 10:30 

Ответить с цитатой 

Frankie Lee / The Ladies and the Babies
Жанр: Blues
Носитель: CD
Страна-производитель диска (релиза): USA
Год издания: 1984(1997)
Издатель (лейбл): High Tone Records
Номер по каталогу: HMG 5501
Аудиокодек: FLAC (*.flac)
Тип рипа: tracks+.cue
Продолжительность: 0:39:46.72
Источник: pazanenok
Наличие сканов в содержимом раздачи: нет
Треклист:
01.The ladies and the babies
02.The woman don't live here no more
03.Lu ann
04.Face it
05.Stoned, cold, & blue
06.Nasty stuff
07.Don't make me go home
08.My first million tears
09.It,s cold out here
10.Steppin' in the shoes of a fool
Код:
Exact Audio Copy V1.1 from 23. June 2015
EAC extraction logfile from 3. September 2019, 18:19
Frankie Lee / The Ladies and the Babies
Used drive  : PIONEER DVD-RW  DVR-219L   Adapter: 1  ID: 0
Read mode               : Secure
Utilize accurate stream : Yes
Defeat audio cache      : Yes
Make use of C2 pointers : No
Read offset correction                      : 6
Overread into Lead-In and Lead-Out          : No
Fill up missing offset samples with silence : Yes
Delete leading and trailing silent blocks   : No
Null samples used in CRC calculations       : Yes
Used interface                              : Native Win32 interface for Win NT & 2000
Gap handling                                : Appended to previous track
Used output format              : User Defined Encoder
Selected bitrate                : 128 kBit/s
Quality                         : High
Add ID3 tag                     : No
Command line compressor         : C:\Program Files\Exact Audio Copy\Flac\flac.exe
Additional command line options : -V -8 -T "Genre=%genre%" -T "Artist=%artist%" -T "Title=%title%" -T "Album=%albumtitle%" -T "Date=%year%" -T "Tracknumber=%tracknr%" -T "Comment=%comment%" %source%
TOC of the extracted CD
     Track |   Start  |  Length  | Start sector | End sector
    ---------------------------------------------------------
        1  |  0:00.00 |  3:45.57 |         0    |    16931
        2  |  3:45.57 |  2:56.18 |     16932    |    30149
        3  |  6:42.00 |  3:38.70 |     30150    |    46569
        4  | 10:20.70 |  4:43.60 |     46570    |    67854
        5  | 15:04.55 |  2:52.50 |     67855    |    80804
        6  | 17:57.30 |  4:46.10 |     80805    |   102264
        7  | 22:43.40 |  4:36.47 |    102265    |   123011
        8  | 27:20.12 |  4:08.50 |    123012    |   141661
        9  | 31:28.62 |  4:39.45 |    141662    |   162631
       10  | 36:08.32 |  3:38.40 |    162632    |   179021
Track  1
     Filename E:\Раздачи\Frankie Lee - The Ladies and the Babies - 1984(1997)\01. The ladies and the babies.wav
     Pre-gap length  0:00:02.00
     Peak level 99.2 %
     Extraction speed 1.7 X
     Track quality 99.9 %
     Test CRC 0154D9DC
     Copy CRC 0154D9DC
     Accurately ripped (confidence 3)  [CECC7A09]  (AR v2)
     Copy OK
Track  2
     Filename E:\Раздачи\Frankie Lee - The Ladies and the Babies - 1984(1997)\02. The woman don't live here no more.wav
     Pre-gap length  0:00:02.65
     Peak level 96.5 %
     Extraction speed 1.9 X
     Track quality 100.0 %
     Test CRC B307CB9D
     Copy CRC B307CB9D
     Accurately ripped (confidence 3)  [021DBEEA]  (AR v2)
     Copy OK
Track  3
     Filename E:\Раздачи\Frankie Lee - The Ladies and the Babies - 1984(1997)\03. Lu ann.wav
     Pre-gap length  0:00:02.43
     Peak level 99.5 %
     Extraction speed 2.1 X
     Track quality 100.0 %
     Test CRC 6942848A
     Copy CRC 6942848A
     Accurately ripped (confidence 3)  [2416E0E5]  (AR v2)
     Copy OK
Track  4
     Filename E:\Раздачи\Frankie Lee - The Ladies and the Babies - 1984(1997)\04. Face it.wav
     Pre-gap length  0:00:03.10
     Peak level 100.0 %
     Extraction speed 2.3 X
     Track quality 100.0 %
     Test CRC 08B0E817
     Copy CRC 08B0E817
     Accurately ripped (confidence 3)  [5D2EB268]  (AR v2)
     Copy OK
Track  5
     Filename E:\Раздачи\Frankie Lee - The Ladies and the Babies - 1984(1997)\05. Stoned, cold, & blue.wav
     Pre-gap length  0:00:02.30
     Peak level 98.9 %
     Extraction speed 2.2 X
     Track quality 100.0 %
     Test CRC E7DBDF9E
     Copy CRC E7DBDF9E
     Accurately ripped (confidence 3)  [447E4F52]  (AR v2)
     Copy OK
Track  6
     Filename E:\Раздачи\Frankie Lee - The Ladies and the Babies - 1984(1997)\06. Nasty stuff.wav
     Pre-gap length  0:00:02.65
     Peak level 99.1 %
     Extraction speed 2.2 X
     Track quality 99.9 %
     Test CRC A8C9FAA6
     Copy CRC A8C9FAA6
     Accurately ripped (confidence 3)  [41347349]  (AR v2)
     Copy OK
Track  7
     Filename E:\Раздачи\Frankie Lee - The Ladies and the Babies - 1984(1997)\07. Don't make me go home.wav
     Pre-gap length  0:00:02.70
     Peak level 99.3 %
     Extraction speed 2.6 X
     Track quality 100.0 %
     Test CRC 16ACD627
     Copy CRC 16ACD627
     Accurately ripped (confidence 3)  [3449DBC4]  (AR v2)
     Copy OK
Track  8
     Filename E:\Раздачи\Frankie Lee - The Ladies and the Babies - 1984(1997)\08. My first million tears.wav
     Pre-gap length  0:00:03.05
     Peak level 98.1 %
     Extraction speed 2.4 X
     Track quality 99.9 %
     Test CRC F1786399
     Copy CRC F1786399
     Accurately ripped (confidence 3)  [C732FDF7]  (AR v2)
     Copy OK
Track  9
     Filename E:\Раздачи\Frankie Lee - The Ladies and the Babies - 1984(1997)\09. It,s cold out here.wav
     Pre-gap length  0:00:02.55
     Peak level 99.8 %
     Extraction speed 2.8 X
     Track quality 100.0 %
     Test CRC F530A179
     Copy CRC F530A179
     Accurately ripped (confidence 3)  [79A89349]  (AR v2)
     Copy OK
Track 10
     Filename E:\Раздачи\Frankie Lee - The Ladies and the Babies - 1984(1997)\10. Steppin' in the shoes of a fool.wav
     Pre-gap length  0:00:01.57
     Peak level 99.3 %
     Extraction speed 2.8 X
     Track quality 100.0 %
     Test CRC DCC522A8
     Copy CRC DCC522A8
     Accurately ripped (confidence 3)  [A375DE86]  (AR v2)
     Copy OK
All tracks accurately ripped
No errors occurred
End of status report
==== Log checksum 5509FDAF5F594D9ABE59C5737C067F33D982B43937BD44C642142A5DE5123032 ====
Правила, инструкции, FAQ!!!
Торрент  Добавлен [07 сен 2019, 10:30] Скачать торрент Магнет ссылка
Скачать торрент
[ Размер 20.47 КБ / Просмотров 9 ]

Статус
Проверен 
 
Размер  244.92 МБ
Приватный: Нет (DHT включён)
.torrent скачан  0
Как залить торрент? | Как скачать Torrent? | Ошибка в торренте? Качайте магнет  


     Отправить личное сообщение
   
Страница 1 из 1
Показать сообщения за:  Поле сортировки  
Начать новую тему Ответить на тему


Сейчас этот форум просматривают: нет зарегистрированных пользователей и гости: 0


Вы не можете начинать темы
Вы не можете отвечать на сообщения
Вы не можете редактировать свои сообщения
Вы не можете удалять свои сообщения
Вы не можете добавлять вложения

Перейти:  
Ресурс не предоставляет электронные версии произведений, а занимается лишь коллекционированием и каталогизацией ссылок, присылаемых и публикуемых на форуме нашими читателями. Если вы являетесь правообладателем какого-либо представленного материала и не желаете чтобы ссылка на него находилась в нашем каталоге, свяжитесь с нами и мы незамедлительно удалим её. Файлы для обмена на трекере предоставлены пользователями сайта, и администрация не несёт ответственности за их содержание. Просьба не заливать файлы, защищенные авторскими правами, а также файлы нелегального содержания!
cron