Начать новую тему Ответить на тему
Статистика раздачи
Размер: 7.15 ГБ | Добавлен: 06 авг 2016, 17:45 | Скачали: 8
Сидеров: 10  [0 байт/сек]    Личеров: 15  [0 байт/сек]
Пред. тема | След. тема 

Автор
Сообщение

СообщениеДобавлено: 19 июн 2015, 18:24 

Ответить с цитатой 

Blindside Blues Band/Mike Onesko Project - 16 альбомов (1993 - 2015)

Год: 1993 - 2015
Жанр: Heavy Blues-Rock
Продолжительность: 16:37:29

Кодек: FLAC, APE, WavPack
Тип раздачи: (image+.cue), (tracks+.cue)
Битрейт: Lossless


Описание:Mike Onesko, известнейший блюз-рок музыкант, участник и создатель около двух десятков групп и проектов, начиная с 1972 года и по сегодняшний день. Самый его известный коллектив Blindside Blues Band. Играл практически со всеми блюз и рок знаменитостями современности. Стиль его музыки - мощное звучание тяжелых блюзовых гитар.


Треклист:
Список альбомов:
1993 - Blindside Blues Band - BlindSide Blues Band
1994 - Blindside Blues Band - Blindsided
1995 - Blindside Blues Band - Messenger Of The Blues
1996 - Blindside Blues Band - To The Station
2001 - Mike Onesko's Guitar Army - Armageddon
2004 - Mike Onesko Blues Band - Smokehouse Sessions
2006 - Blindside Blues Band - Long Hard Road
2008 - Blindside Blues Band - Keepers Of The Flame

Альбомы:
#777Трeклист:

01. Bad Premonition (3:51)
02. Renegade (4:19)
03. Hit The Highway (4:43)
04. Blues In My Soul (4:46)
05. Flying (3:22)
06. Back Against The Wall (3:51)
07. Powerful Thing (4:00)
08. Burnings Cities (3:55)
09. Early Grave (4:16)
10. Winner Takes It All (4:10)
Код:
Код:
Exact Audio Copy V0.99 prebeta 4 from 23. January 2008

EAC extraction logfile from 6. May 2012, 18:49

Blindside Blues Band / BlindSide Blues Band

Used drive  : PLEXTOR DVDR   PX-800A   Adapter: 1  ID: 0

Read mode               : Secure
Utilize accurate stream : Yes
Defeat audio cache      : Yes
Make use of C2 pointers : No

Read offset correction                      : 48
Overread into Lead-In and Lead-Out          : No
Fill up missing offset samples with silence : Yes
Delete leading and trailing silent blocks   : No
Null samples used in CRC calculations       : Yes
Used interface                              : Native Win32 interface for Win NT & 2000

Used output format              : User Defined Encoder
Selected bitrate                : 896 kBit/s
Quality                         : High
Add ID3 tag                     : No
Command line compressor         : C:\Program Files\Exact Audio Copy\wavpack.exe
Additional command line options : -hlm %s

TOC of the extracted CD

     Track |   Start  |  Length  | Start sector | End sector
    ---------------------------------------------------------
        1  |  0:00.37 |  3:50.70 |        37    |    17356
        2  |  3:51.32 |  4:18.57 |     17357    |    36763
        3  |  8:10.14 |  4:43.25 |     36764    |    58013
        4  | 12:53.39 |  4:45.55 |     58014    |    79443
        5  | 17:39.19 |  3:22.35 |     79444    |    94628
        6  | 21:01.54 |  3:50.55 |     94629    |   111933
        7  | 24:52.34 |  4:00.23 |    111934    |   129956
        8  | 28:52.57 |  3:54.55 |    129957    |   147561
        9  | 32:47.37 |  4:15.67 |    147562    |   166753
       10  | 37:03.29 |  4:10.28 |    166754    |   185531

Range status and errors

Selected range

     Filename E:\Downloads\Blindside Blues Band - BlindSide Blues Band.wav

     Peak level 100.0 %
     Range quality 100.0 %
     Test CRC BB930278
     Copy CRC BB930278
     Copy OK

No errors occurred

AccurateRip summary

Track  1  not present in database
Track  2  not present in database
Track  3  not present in database
Track  4  not present in database
Track  5  not present in database
Track  6  not present in database
Track  7  not present in database
Track  8  not present in database
Track  9  not present in database
Track 10  not present in database

None of the tracks are present in the AccurateRip database

End of status report
Код:
Код:
-----------------------

DON'T MODIFY THIS FILE

-----------------------

PERFORMER: auCDtect Task Manager, ver. 1.0.3 B1 build 1.0.3.0
Copyright (c) 2008, 2009 y-soft. All rights reserved
http:/y-soft.110mb.com

ANALYZER: auCDtect: CD records authenticity detector, version 0.8.2
Copyright (c) 2004 Oleg Berngardt. All rights reserved.
Copyright (c) 2004 Alexander Djourik. All rights reserved.

FILE: Blindside Blues Band - BlindSide Blues Band.wv
  Size: 324241180 Hash: B1BBBC034359784BBACABA46D45AD7F3 Accuracy: -m0
  Conclusion: CDDA 100%
  Signature: 4F830BAC0011A17B52BDFC8C194EB19F9A506189
Прoдолжительность - 00:41:13
WavPack (image+.cue)
#777Трeклист:

01. Play The Blues (5:06)
02. Borderline Blues (3:40)
03. Talkin' Bout My Baby (4:37)
04. Truth Never Lies (7:01)
05. Climb The Sky (4:34)
06. Higher Ground (4:22)
07. Long Hard Road (3:34)
08. Whole Lotta Nothin' (3:44)
09. Guilty (7:34)
10. Catchin' Z's (4:57)
Код:
Код:
Exact Audio Copy V0.99 prebeta 4 from 23. January 2008

EAC extraction logfile from 22. April 2011, 12:09

Blindside Blues Band / Blindsided

Used drive  : PLEXTOR DVDR   PX-800A   Adapter: 7  ID: 0

Read mode               : Secure
Utilize accurate stream : Yes
Defeat audio cache      : Yes
Make use of C2 pointers : No

Read offset correction                      : 48
Overread into Lead-In and Lead-Out          : No
Fill up missing offset samples with silence : Yes
Delete leading and trailing silent blocks   : No
Null samples used in CRC calculations       : Yes
Used interface                              : Installed external ASPI interface

Used output format              : User Defined Encoder
Selected bitrate                : 896 kBit/s
Quality                         : High
Add ID3 tag                     : No
Command line compressor         : C:\Program Files\Exact Audio Copy\wavpack.exe
Additional command line options : -hlm %s

TOC of the extracted CD

     Track |   Start  |  Length  | Start sector | End sector
    ---------------------------------------------------------
        1  |  0:00.37 |  5:06.25 |        37    |    23011
        2  |  5:06.62 |  3:40.28 |     23012    |    39539
        3  |  8:47.15 |  4:36.42 |     39540    |    60281
        4  | 13:23.57 |  7:01.15 |     60282    |    91871
        5  | 20:24.72 |  4:33.68 |     91872    |   112414
        6  | 24:58.65 |  4:21.57 |    112415    |   132046
        7  | 29:20.47 |  3:33.50 |    132047    |   148071
        8  | 32:54.22 |  3:44.03 |    148072    |   164874
        9  | 36:38.25 |  7:34.30 |    164875    |   198954
       10  | 44:12.55 |  4:57.17 |    198955    |   221246

Range status and errors

Selected range

     Filename E:\Downloads\Blindside Blues Band - Blindsided 1994\Blindside Blues Band - Blindsided.wav

     Peak level 96.4 %
     Range quality 100.0 %
     Test CRC 366DC6B7
     Copy CRC 366DC6B7
     Copy OK

No errors occurred

AccurateRip summary

Track  1  not present in database
Track  2  not present in database
Track  3  not present in database
Track  4  not present in database
Track  5  not present in database
Track  6  not present in database
Track  7  not present in database
Track  8  not present in database
Track  9  not present in database
Track 10  not present in database

None of the tracks are present in the AccurateRip database

End of status report
Код:
Код:
-----------------------

DON'T MODIFY THIS FILE

-----------------------

PERFORMER: auCDtect Task Manager, ver. 1.6.0 RC1 build 1.6.0.1
Copyright (c) 2008-2010 y-soft. All rights reserved
http:/y-soft.org

ANALYZER: auCDtect: CD records authenticity detector, version 0.8.2
Copyright (c) 2004 Oleg Berngardt. All rights reserved.
Copyright (c) 2004 Alexander Djourik. All rights reserved.

FILE: Blindside Blues Band - Blindsided.wv
  Size: 367824418 Hash: 6A23CCF603E92EFED13BB97FB477D7D4 Accuracy: -m0
  Conclusion: CDDA 100%
  Signature: E5A0EED9E00636875CD05E1CD416C21E39D27ECB
Прoдолжительность - 00:49:09
WavPack (image+.cue)
#777Трeклист:

01. Let The Blues Do The Healing (5:33)
02. True Blues (4:15)
03. Crying Shame (7:37)
04. Many Lessons (7:13)
05. Mystery Rider (3:55)
06. No Mercy (4:00)
07. Lonely Road (3:45)
08. No One To Trust (3:52)
09. Messenger Of The Blues (4:45)
10. I'm Trying (13:19)
Код:
Код:
Отчёт EAC об извлечении, выполненном 14. июня 2008, 9:31 для диска:
Blindside Blues Band / Messenger Of The Blues

Дисковод: _NEC    DVD_RW ND-3520A   Adapter: 1  ID: 0
Режим чтения: Достоверный (C2: нет, Точный поток: да, Отключение кэша: да)
Коррекция смещения при чтении: 48
Способность читать области Lead-in и Lead-out : Нет

Выходной формат: Внутренние WAV-операции
                     44.100 Гц; 16 бит; стерео

Другие параметры:
    Заполнение пропущенных сэмплов тишиной : Да
    Удаление блоков с тишиной в начале и конце : Нет
    Установленный внешний ASPI-интерфейс

Характеристики диапазона извлечения и сообщения об ошибках
Выбранный диапазон
     Имя файла D:\EAC\ZAKAZ\Blindside Blues Band\Blindside Blues Band - Messenger Of The Blues.wav

     Пиковый уровень 95.7 %
     Качество диапазона 100.0 %
     CRC 88713A57
     Копирование... OK

Ошибок не произошло

Конец отчёта
Код:
Код:
-----------------------

DON'T MODIFY THIS FILE

-----------------------

PERFORMER: auCDtect Task Manager, ver. 1.6.0 RC1 build 1.6.0.1
Copyright (c) 2008-2010 y-soft. All rights reserved
http:/y-soft.org

ANALYZER: auCDtect: CD records authenticity detector, version 0.8.2
Copyright (c) 2004 Oleg Berngardt. All rights reserved.
Copyright (c) 2004 Alexander Djourik. All rights reserved.

FILE: Blindside Blues Band - Messenger Of The Blues.ape
  Size: 407376396 Hash: 0B585151FF92DD9E407E8A8EBBA01098 Accuracy: -m0
  Conclusion: CDDA 100%
  Signature: 84256C5639D558CB4831C201E4BF22D335BD7660
Прoдолжительность - 00:58:16
APE (image+.cue)
#777Трeклист:

01. To The Station (5:45)
02. I'm Not Your Man (6:32)
03. Take His Keys (3:04)
04. Whirlwind (5:26)
05. Natural Thang (8:08)
06. Worn Out Shoe (5:28)
07. Fade Away (5:16)
08. Get Outta My Way (4:56)
09. Hurting Me (7:43)
10. All I Need (4:10)
Код:
Код:
Отчёт EAC об извлечении, выполненном 14. июня 2008, 9:11 для диска:
Blindside Blues Band / To The Station

Дисковод: _NEC    DVD_RW ND-3520A   Adapter: 1  ID: 0
Режим чтения: Достоверный (C2: нет, Точный поток: да, Отключение кэша: да)
Коррекция смещения при чтении: 48
Способность читать области Lead-in и Lead-out : Нет

Выходной формат: Внутренние WAV-операции
                     44.100 Гц; 16 бит; стерео

Другие параметры:
    Заполнение пропущенных сэмплов тишиной : Да
    Удаление блоков с тишиной в начале и конце : Нет
    Установленный внешний ASPI-интерфейс

Характеристики диапазона извлечения и сообщения об ошибках
Выбранный диапазон
     Имя файла D:\EAC\ZAKAZ\Blindside Blues Band\Mike Onesko Blues Band - To The Station\Blindside Blues Band - To The Station.wav

     Пиковый уровень 100.0 %
     Качество диапазона 100.0 %
     CRC AB9DA4DD
     Копирование... OK

Ошибок не произошло

Конец отчёта
Код:
Код:
-----------------------

DON'T MODIFY THIS FILE

-----------------------

PERFORMER: auCDtect Task Manager, ver. 1.6.0 RC1 build 1.6.0.1
Copyright (c) 2008-2010 y-soft. All rights reserved
http:/y-soft.org

ANALYZER: auCDtect: CD records authenticity detector, version 0.8.2
Copyright (c) 2004 Oleg Berngardt. All rights reserved.
Copyright (c) 2004 Alexander Djourik. All rights reserved.

FILE: Blindside Blues Band - To The Station.ape
  Size: 364812284 Hash: A13A129FB91A223B91ED44F668E3C75D Accuracy: -m0
  Conclusion: CDDA 100%
  Signature: 88115D44E01FA2D3B523BE5E798AEAAF97A6AA71
Прoдолжительность - 00:56:28
APE (image+.cue)
#777Трeклист:

01. Everyday Living (4:40)
02. Steelwind (3:37)
03. Too Young To Die (4:23)
04. The Light (5:31)
05. Out On The Streets (4:17)
06. Old Rockers Anthem (4:01)
07. Dirty Liar (3:26)
08. Story of Kal-El (4:21)
09. Promised Land (6:14)
10. Armageddon (pt.1 Final Battle pt.2 The Aftermath pt. 3 Rebirth) (8:34)
Код:
Код:
Отчёт EAC об извлечении, выполненном 18. апреля 2008, 19:49 для диска:
Mike Onesko's Guitar Army / Armageddon

Дисковод: _NEC    DVD_RW ND-3520A   Adapter: 1  ID: 0
Режим чтения: Достоверный (C2: нет, Точный поток: да, Отключение кэша: да)
Коррекция смещения при чтении: 48
Способность читать области Lead-in и Lead-out : Нет

Выходной формат: Внутренние WAV-операции
                     44.100 Гц; 16 бит; стерео

Другие параметры:
    Заполнение пропущенных сэмплов тишиной : Да
    Удаление блоков с тишиной в начале и конце : Нет
    Установленный внешний ASPI-интерфейс

Характеристики диапазона извлечения и сообщения об ошибках
Выбранный диапазон
     Имя файла D:\EAC\ZAKAZ\Mike Onesko's Guitar Army - Armageddon.wav

     Пиковый уровень 100.0 %
     Качество диапазона 100.0 %
     CRC C6133DE5
     Копирование... OK

Ошибок не произошло

Конец отчёта
Код:
Код:
-----------------------

DON'T MODIFY THIS FILE

-----------------------

PERFORMER: auCDtect Task Manager, ver. 1.6.0 RC1 build 1.6.0.1
Copyright (c) 2008-2010 y-soft. All rights reserved
http:/y-soft.org

ANALYZER: auCDtect: CD records authenticity detector, version 0.8.2
Copyright (c) 2004 Oleg Berngardt. All rights reserved.
Copyright (c) 2004 Alexander Djourik. All rights reserved.

FILE: Mike Onesko's Guitar Army - Armageddon.ape
  Size: 347014432 Hash: 1615B23FB956CA89F03D8760540FB4D3 Accuracy: -m0
  Conclusion: CDDA 100%
  Signature: 3CC1F876FD2101E059B82150C97B7ADCFA37105D
Прoдолжительность - 00:49:04
APE (image+.cue)
#777Трeклист:

01. Black Betty (2:30)
02. Slow and Steady (5:22)
03. Who's Been Talkin' (4:26)
04. Dirty Double DEaler (4:17)
05. Big Fat Mama (2:49)
06. 'Sloroads (4:10)
07. The Glide (8:24)
08. Rock Me Baby (4:16)
09. Who Knows Jam (7:58)
10. You Don't Love Me (6:06)
11. Little Red Rooster (7:44)
12. Da Blues (4:58)
13. Crossroads (4:10)
Код:
Код:
Exact Audio Copy V0.99 prebeta 3 from 28. July 2007

Отчёт EAC об извлечении, выполненном 29. ноября 2007, 20:00

Mike Onesko Blues Band / Smokehouse Sessions

Дисковод: TOSHIBA DVD-ROM SD-R1312   Adapter: 1  ID: 0

Режим чтения                 : Достоверность
Использование точного потока : Да
Отключение кэша аудио        : Да
Использование указателей C2  : Нет

Коррекция смещения при чтении                     : 116
Способность читать области Lead-in и Lead-out     : Нет
Заполнение пропущенных сэмплов тишиной            : Да
Удаление блоков с тишиной в начале и конце        : Нет
При вычислениях CRC использовались нулевые сэмплы : Нет
Интерфейс                                         : Встроенный Win32-интерфейс для Win NT/2000

Выходной формат          : Monkey's Audio (без потерь)
Выбранный битрейт        : High Lossless Compression
Качество                 : Высокий
Добавление ID3-тэга      : Да
Утилита сжатия           : C:\Program Files\Monkey's Audio\MAC.exe

TOC извлечённого CD

     Трек |   Старт  | Длительность | Начальный сектор | Конечный сектор
    ---------------------------------------------------------------------
       1  |  0:00.00 |    2:29.52   |           0      |      11226
       2  |  2:29.52 |    5:22.35   |       11227      |      35411
       3  |  7:52.12 |    4:26.15   |       35412      |      55376
       4  | 12:18.27 |    4:16.68   |       55377      |      74644
       5  | 16:35.20 |    2:49.22   |       74645      |      87341
       6  | 19:24.42 |    4:09.40   |       87342      |     106056
       7  | 23:34.07 |    8:23.60   |      106057      |     143841
       8  | 31:57.67 |    4:15.58   |      143842      |     163024
       9  | 36:13.50 |    7:58.35   |      163025      |     198909
      10  | 44:12.10 |    6:06.17   |      198910      |     226376
      11  | 50:18.27 |    7:44.33   |      226377      |     261209
      12  | 58:02.60 |    4:57.47   |      261210      |     283531
      13  | 63:00.32 |    4:09.53   |      283532      |     302259

Характеристики диапазона извлечения и сообщения об ошибках

Выбранный диапазон

     Имя файла C:\My Music\Новая папка\Mike Onesko Blues Band - Smokehouse Sessions.wav

     Пиковый уровень 99.9 %
     Качество диапазона 99.9 %
     CRC копии C388AEDD
     Копирование... OK

Ошибок не произошло

Конец отчёта
Код:
Код:
-----------------------

DON'T MODIFY THIS FILE

-----------------------

PERFORMER: auCDtect Task Manager, ver. 1.6.0 RC1 build 1.6.0.1
Copyright (c) 2008-2010 y-soft. All rights reserved
http:/y-soft.org

ANALYZER: auCDtect: CD records authenticity detector, version 0.8.2
Copyright (c) 2004 Oleg Berngardt. All rights reserved.
Copyright (c) 2004 Alexander Djourik. All rights reserved.

FILE: Mike Onesko Blues Band - Smokehouse Sessions.ape
  Size: 463094528 Hash: BA4DCB004274BF73682572A6B7B028B4 Accuracy: -m0
  Conclusion: CDDA 100%
  Signature: A1A662DDB533C8BFB3339B3BB31E21C05C2F1DA7
Прoдолжительность - 01:07:10
APE (image+.cue)
#777Трeклист:

01. Electric Woman (4:40)
02. Mercury Man (3:54)
03. Outside Woman Blues (4:21)
04. I Should`ve Loved You (5:07)
05. The Power (5:12)
06. Time Before The Sun (6:54)
07. Pack I`t Up And Go (4:31)
08. Sacred Son (5:25)
09. Gypsy Blood (4:36)
10. Wall Of Illusion (4:54)
11. Hot Shot (19:44)
Код:
Код:
Exact Audio Copy V0.99 prebeta 4 from 23. January 2008

Отчёт EAC об извлечении, выполненном 22. января 2009, 12:44

Blindside Blues Band / Long Hard Road

Дисковод: PIONEER DVD-RW  DVR-112D   Adapter: 0  ID: 0

Режим чтения                 : Достоверность
Использование точного потока : Да
Отключение кэша аудио        : Да
Использование указателей C2  : Нет

Комбинированное смещение чтения/записи            : 48
Способность читать области Lead-in и Lead-out     : Нет
Заполнение пропущенных сэмплов тишиной            : Да
Удаление блоков с тишиной в начале и конце        : Нет
При вычислениях CRC использовались нулевые сэмплы : Нет
Интерфейс                                         : Установленный внешний ASPI-интерфейс

Выходной формат : Внутренние WAV-операции
Формат сэмплов  : 44.100 Гц; 16 бит; стерео

TOC извлечённого CD

     Трек |   Старт  | Длительность | Начальный сектор | Конечный сектор
    ---------------------------------------------------------------------
       1  |  0:00.00 |    4:39.68   |           0      |      20992
       2  |  4:39.68 |    3:53.62   |       20993      |      38529
       3  |  8:33.55 |    4:20.49   |       38530      |      58078
       4  | 12:54.29 |    5:06.51   |       58079      |      81079
       5  | 18:01.05 |    5:12.37   |       81080      |     104516
       6  | 23:13.42 |    6:53.53   |      104517      |     135544
       7  | 30:07.20 |    4:30.71   |      135545      |     155865
       8  | 34:38.16 |    5:24.65   |      155866      |     180230
       9  | 40:03.06 |    4:36.22   |      180231      |     200952
      10  | 44:39.28 |    4:53.42   |      200953      |     222969
      11  | 49:32.70 |   19:43.62   |      222970      |     311756

Характеристики диапазона извлечения и сообщения об ошибках

Выбранный диапазон

     Имя файла E:\Downloads\Blindside Blues Band - Long Hard Road.wav

     Пиковый уровень 100.0 %
     Качество диапазона 99.9 %
     CRC копии F6B7B427
     Копирование... OK

Ошибок не произошло

Конец отчёта
Код:
Код:
-----------------------

DON'T MODIFY THIS FILE

-----------------------

PERFORMER: auCDtect Task Manager, ver. 1.6.0 RC1 build 1.6.0.1
Copyright (c) 2008-2010 y-soft. All rights reserved
http:/y-soft.org

ANALYZER: auCDtect: CD records authenticity detector, version 0.8.2
Copyright (c) 2004 Oleg Berngardt. All rights reserved.
Copyright (c) 2004 Alexander Djourik. All rights reserved.

FILE: Blindside Blues Band - Long Hard Road.ape
  Size: 535546192 Hash: B4ABCD1569E4A0B128027EA0D3DBF3A0 Accuracy: -m0
  Conclusion: CDDA 100%
  Signature: D431925683725ACAE30AA98203403209961D1633
Прoдолжительность - 01:09:17
APE (image+.cue)
#777Трeклист:

01. Keepers Of The Flame (5:32)
02. Sonic Love (4:43)
03. Jagged Edge (5:35)
04. Maybe I'm A Leo (6:06)
05. Lonesome Road (7:41)
06. Back Stabber (7:08)
07. Electric Wave (4:05)
08. I Wanna Be Free (4:19)
09. Bad Luck (6:25)
10. Hannah (6:44)
11. Bluesion (4:35)
12. Track12 (14:10)
Код:
Код:
Отчёт EAC об извлечении, выполненном 14. июня 2008, 8:53 для диска:
Blindside Blues Band / Keepers Of The Flame

Дисковод: _NEC    DVD_RW ND-3520A   Adapter: 1  ID: 0
Режим чтения: Достоверный (C2: нет, Точный поток: да, Отключение кэша: да)
Коррекция смещения при чтении: 48
Способность читать области Lead-in и Lead-out : Нет

Выходной формат: Внутренние WAV-операции
                     44.100 Гц; 16 бит; стерео

Другие параметры:
    Заполнение пропущенных сэмплов тишиной : Да
    Удаление блоков с тишиной в начале и конце : Нет
    Установленный внешний ASPI-интерфейс

Характеристики диапазона извлечения и сообщения об ошибках
Выбранный диапазон
     Имя файла D:\EAC\ZAKAZ\Blindside Blues Band - Keepers Of The Flame.wav

     Пиковый уровень 96.3 %
     Качество диапазона 100.0 %
     CRC CDC78028
     Копирование... OK

Ошибок не произошло

Конец отчёта
Код:
Код:
-----------------------

DON'T MODIFY THIS FILE

-----------------------

PERFORMER: auCDtect Task Manager, ver. 1.6.0 RC1 build 1.6.0.1
Copyright (c) 2008-2010 y-soft. All rights reserved
http:/y-soft.org

ANALYZER: auCDtect: CD records authenticity detector, version 0.8.2
Copyright (c) 2004 Oleg Berngardt. All rights reserved.
Copyright (c) 2004 Alexander Djourik. All rights reserved.

FILE: Blindside Blues Band - Keepers Of The Flame.ape
  Size: 556784320 Hash: 519904E10A3FDDF6832EEE31EFA0C312 Accuracy: -m0
  Conclusion: CDDA 100%
  Signature: C9D672999BE306DE25A84D6831ADB8D490A258B3
Прoдолжительность - 01:17:02
APE (image+.cue)
#777Трeклист:

01. Crossroads (3:53)
02. Politician (5:49)
03. Sitting on Top of the World (6:15)
04. Outside Woman Blues (4:08)
05. Tales of Brave Ulysses (3:25)
06. I'm so Glad (4:26)
07. Spoonfull (8:24)
08. Toad (4:59)
09. We're Going Wrong (6:05)
10. Sunshine of your Love (20:44)
Код:
Код:
Exact Audio Copy V0.99 prebeta 4 from 23. January 2008

Отчёт EAC об извлечении, выполненном 13. июня 2009, 21:11

Onesco,Bogert,Ceo Project / Big Electric Cream Jam

Дисковод: PLEXTOR DVDR   PX-820A   Adapter: 0  ID: 1

Режим чтения                 : Достоверность
Использование точного потока : Да
Отключение кэша аудио        : Да
Использование указателей C2  : Нет

Коррекция смещения при чтении                     : 48
Способность читать области Lead-in и Lead-out     : Нет
Заполнение пропущенных сэмплов тишиной            : Да
Удаление блоков с тишиной в начале и конце        : Нет
При вычислениях CRC использовались нулевые сэмплы : Да
Интерфейс                                         : Встроенный Win32-интерфейс для Win NT/2000

Выходной формат : Внутренние WAV-операции
Формат сэмплов  : 44.100 Гц; 16 бит; стерео

TOC извлечённого CD

     Трек |   Старт  | Длительность | Начальный сектор | Конечный сектор
    ---------------------------------------------------------------------
       1  |  0:00.00 |    3:52.47   |           0      |      17446
       2  |  3:52.47 |    5:48.54   |       17447      |      43600
       3  |  9:41.26 |    6:15.27   |       43601      |      71752
       4  | 15:56.53 |    4:08.18   |       71753      |      90370
       5  | 20:04.71 |    3:25.15   |       90371      |     105760
       6  | 23:30.11 |    4:25.74   |      105761      |     125709
       7  | 27:56.10 |    8:23.68   |      125710      |     163502
       8  | 36:20.03 |    4:58.47   |      163503      |     185899
       9  | 41:18.50 |    6:05.36   |      185900      |     213310
      10  | 47:24.11 |   20:44.22   |      213311      |     306632

Характеристики диапазона извлечения и сообщения об ошибках

Выбранный диапазон

     Имя файла D:\Муз раздача 5 - лето\Onesco Bogert Ceo Project\Onesco,Bogert,Ceo Project - Big Electric Cream Jam.wav

     Пиковый уровень 99.9 %
     Качество диапазона 100.0 %
     CRC копии B5D5741F
     Копирование... OK

Ошибок не произошло

Конец отчёта
Код:
Код:
-----------------------

DON'T MODIFY THIS FILE

-----------------------

PERFORMER: auCDtect Task Manager, ver. 1.6.0 RC1 build 1.6.0.1
Copyright (c) 2008-2010 y-soft. All rights reserved
http:/y-soft.org

ANALYZER: auCDtect: CD records authenticity detector, version 0.8.2
Copyright (c) 2004 Oleg Berngardt. All rights reserved.
Copyright (c) 2004 Alexander Djourik. All rights reserved.

FILE: Onesco,Bogert,Ceo Project - Big Electric Cream Jam.ape
  Size: 485797672 Hash: F5247C7DCA57FD169E3D58E723238AB1 Accuracy: -m0
  Conclusion: CDDA 100%
  Signature: F7E80C7C41C05B953E0D1B3820FB63B4CB7570B8
Прoдолжительность - 01:08:08
APE (image+.cue)
#777Трeклист:

01. Little Red Rooster (7:41)
02. Rock Me Baby (4:16)
03. Dirty Double Dealer (4:17)
04. Sweet Little Angel (6:24)
05. Ramblin' On My Mind (6:46)
06. Hoochie Coochie Man (10:29)
07. Same Old Situation (4:58)
08. Who Knows Jam (7:57)
09. Crossroads 69 (8:09)
10. Albatross (4:05)
Код:
Код:
Exact Audio Copy V0.99 prebeta 4 from 23. January 2008

Отчёт EAC об извлечении, выполненном 13. июня 2009, 23:21

Blindside Blues Band / Smokehouse Sessions

Дисковод: PLEXTOR DVDR   PX-820A   Adapter: 0  ID: 1

Режим чтения                 : Достоверность
Использование точного потока : Да
Отключение кэша аудио        : Да
Использование указателей C2  : Нет

Коррекция смещения при чтении                     : 48
Способность читать области Lead-in и Lead-out     : Нет
Заполнение пропущенных сэмплов тишиной            : Да
Удаление блоков с тишиной в начале и конце        : Нет
При вычислениях CRC использовались нулевые сэмплы : Да
Интерфейс                                         : Встроенный Win32-интерфейс для Win NT/2000

Выходной формат : Внутренние WAV-операции
Формат сэмплов  : 44.100 Гц; 16 бит; стерео

TOC извлечённого CD

     Трек |   Старт  | Длительность | Начальный сектор | Конечный сектор
    ---------------------------------------------------------------------
       1  |  0:00.00 |    7:40.48   |           0      |      34547
       2  |  7:40.48 |    4:15.48   |       34548      |      53720
       3  | 11:56.21 |    4:16.48   |       53721      |      72968
       4  | 16:12.69 |    6:23.48   |       72969      |     101741
       5  | 22:36.42 |    6:45.48   |      101742      |     132164
       6  | 29:22.15 |   10:28.48   |      132165      |     179312
       7  | 39:50.63 |    4:57.48   |      179313      |     201635
       8  | 44:48.36 |    7:56.48   |      201636      |     237383
       9  | 52:45.09 |    8:08.48   |      237384      |     274031
      10  | 60:53.57 |    4:04.48   |      274032      |     292379

Характеристики диапазона извлечения и сообщения об ошибках

Выбранный диапазон

     Имя файла D:\Муз раздача 5 - лето\Blindside Blues Band 2009\Blindside Blues Band - Smokehouse Sessions.wav

     Пиковый уровень 100.0 %
     Качество диапазона 100.0 %
     CRC копии D7774F58
     Копирование... OK

Ошибок не произошло

Конец отчёта
Код:
Код:
-----------------------

DON'T MODIFY THIS FILE

-----------------------

PERFORMER: auCDtect Task Manager, ver. 1.6.0 RC1 build 1.6.0.1
Copyright (c) 2008-2010 y-soft. All rights reserved
http:/y-soft.org

ANALYZER: auCDtect: CD records authenticity detector, version 0.8.2
Copyright (c) 2004 Oleg Berngardt. All rights reserved.
Copyright (c) 2004 Alexander Djourik. All rights reserved.

FILE: Blindside Blues Band - Smokehouse Sessions.ape
  Size: 430007668 Hash: CD158342FFC4823DA252D710D806CA8F Accuracy: -m0
  Conclusion: CDDA 100%
  Signature: 6B9B217FF3D2BFF3456CEFCE876DECE57F3CE803
Прoдолжительность - 01:04:58
APE (image+.cue)
#777Трeклист:

01. Raised on Rock (5:33)
02. Night Train (4:15)
03. Folsom Prison Blues (5:11)
04. Wave On (5:07)
05. Child of the Sun (6:05)
06. War in the Streets (3:30)
07. Take You Down (4:17)
08. Bury the Axe (5:43)
09. World on Fire (4:40)
10. Love aint worth the Blues (6:03)
11. Backstreet Rider (6:09)
12. Born with the Blues (17:22)
Код:
Код:
Exact Audio Copy V0.99 prebeta 4 from 23. January 2008

Отчёт EAC об извлечении, выполненном 2. мая 2010, 8:48

Blindside Blues Band / Raised on Rock

Дисковод: PLEXTOR DVDR   PX-820A   Adapter: 3  ID: 1

Режим чтения                 : Достоверность
Использование точного потока : Да
Отключение кэша аудио        : Да
Использование указателей C2  : Нет

Коррекция смещения при чтении                     : 48
Способность читать области Lead-in и Lead-out     : Нет
Заполнение пропущенных сэмплов тишиной            : Да
Удаление блоков с тишиной в начале и конце        : Нет
При вычислениях CRC использовались нулевые сэмплы : Да
Интерфейс                                         : Встроенный Win32-интерфейс для Win NT/2000

Выходной формат : Внутренние WAV-операции
Формат сэмплов  : 44.100 Гц; 16 бит; стерео

TOC извлечённого CD

     Трек |   Старт  | Длительность | Начальный сектор | Конечный сектор
    ---------------------------------------------------------------------
       1  |  0:00.00 |    5:33.04   |           0      |      24978
       2  |  5:33.04 |    4:15.28   |       24979      |      44131
       3  |  9:48.32 |    5:11.07   |       44132      |      67463
       4  | 14:59.39 |    5:07.34   |       67464      |      90522
       5  | 20:06.73 |    6:05.27   |       90523      |     117924
       6  | 26:12.25 |    3:29.54   |      117925      |     133653
       7  | 29:42.04 |    4:16.71   |      133654      |     152924
       8  | 33:59.00 |    5:42.40   |      152925      |     178614
       9  | 39:41.40 |    4:40.23   |      178615      |     199637
      10  | 44:21.63 |    6:03.16   |      199638      |     226878
      11  | 50:25.04 |    6:08.44   |      226879      |     254522
      12  | 56:33.48 |   17:21.55   |      254523      |     332652

Характеристики диапазона извлечения и сообщения об ошибках

Выбранный диапазон

     Имя файла D:\1 В РАЗДАЧУ\BLINDSIDE BLUES BAND\Blindside Blues Band - Raised on Rock.wav

     Пиковый уровень 99.9 %
     Качество диапазона 99.9 %
     CRC копии 9B3FCF48
     Копирование... OK

Ошибок не произошло

AccurateRip: сводка

Трек  1  точность не определена (достоверность 1)  [3D028B55], AccurateRip вернул [7819FA3A]
Трек  2  точность не определена (достоверность 1)  [EF6B6E31], AccurateRip вернул [CC83A86F]
Трек  3  точность не определена (достоверность 1)  [E64CCF6A], AccurateRip вернул [3EA1748A]
Трек  4  точность не определена (достоверность 1)  [8E6B907D], AccurateRip вернул [12FC2B85]
Трек  5  точность не определена (достоверность 1)  [44BCBC76], AccurateRip вернул [93992DFC]
Трек  6  точность не определена (достоверность 1)  [6B4E71CE], AccurateRip вернул [5396E824]
Трек  7  точность не определена (достоверность 1)  [7F7C336A], AccurateRip вернул [E0CA5E42]
Трек  8  точность не определена (достоверность 1)  [89000A61], AccurateRip вернул [CE0D9025]
Трек  9  точность не определена (достоверность 1)  [40A81043], AccurateRip вернул [F536991A]
Трек 10  точность не определена (достоверность 1)  [D562E6C1], AccurateRip вернул [0EF6901A]
Трек 11  точность не определена (достоверность 1)  [46307877], AccurateRip вернул [DB7AD90F]
Трек 12  точность не определена (достоверность 1)  [9DBA06B5], AccurateRip вернул [45BE5297]

Ни один трек не прошёл проверки на точность
В вашей базе может быть иной вариант штамповки диска

Конец отчёта
Код:
Код:
-----------------------

DON'T MODIFY THIS FILE

-----------------------

PERFORMER: auCDtect Task Manager, ver. 1.6.0 RC1 build 1.6.0.1
Copyright (c) 2008-2010 y-soft. All rights reserved
http:/y-soft.org

ANALYZER: auCDtect: CD records authenticity detector, version 0.8.2
Copyright (c) 2004 Oleg Berngardt. All rights reserved.
Copyright (c) 2004 Alexander Djourik. All rights reserved.

FILE: Blindside Blues Band - Raised on Rock.ape
  Size: 570381016 Hash: DBD891C527DC00608F43143B1BF918BA Accuracy: -m0
  Conclusion: CDDA 100%
  Signature: 48D562374D2B60BF242FEFD52ED00F258C0DB673
Прoдолжительность - 01:13:55
APE (image+.cue)
#777Трeклист:

01. Evil (4:02)
02. Mojo Highway (6:18)
03. King of the Sky (4:19)
04. I Ain't Superstitious (5:06)
05. Working So Hard (5:47)
06. Smokehouse Shuffle (5:27)
07. Whiskey Man (4:50)
08. Bad Woman Blues (5:25)
09. Hear My Train A Comin' (7:17)
10. To the Station (Unplugged) (12:12)
Код:
Код:
Exact Audio Copy V0.99 prebeta 4 from 23. January 2008

Отчёт EAC об извлечении, выполненном 21. февраля 2011, 22:00

Blindside Blues Band / Smokehouse Sessions - Volume Two-The Blues Is Evi

Дисковод: PLEXTOR DVDR   PX-880SA   Adapter: 1  ID: 1

Режим чтения                 : Достоверность
Использование точного потока : Да
Отключение кэша аудио        : Да
Использование указателей C2  : Нет

Коррекция смещения при чтении                     : 6
Способность читать области Lead-in и Lead-out     : Нет
Заполнение пропущенных сэмплов тишиной            : Да
Удаление блоков с тишиной в начале и конце        : Нет
При вычислениях CRC использовались нулевые сэмплы : Да
Интерфейс                                         : Установленный внешний ASPI-интерфейс

Выходной формат          : Пользовательский кодировщик
Выбранный битрейт        : 1024 kBit/s
Качество                 : Высокий
Добавление ID3-тэга      : Нет
Утилита сжатия           : C:\Program Files\Exact Audio Copy\FLAC\FLAC.EXE
Дополнительные параметры : -5 -V -T "ARTIST=%a" -T "TITLE=%t" -T "ALBUM=%g" -T "DATE=%y" -T "TRACKNUMBER=%n" -T "GENRE=%m" -T "COMMENT=%e" %s -o %d

TOC извлечённого CD

     Трек |   Старт  | Длительность | Начальный сектор | Конечный сектор
    ---------------------------------------------------------------------
       1  |  0:00.00 |    4:02.34   |           0      |      18183
       2  |  4:02.34 |    6:18.07   |       18184      |      46540
       3  | 10:20.41 |    4:18.49   |       46541      |      65939
       4  | 14:39.15 |    5:06.26   |       65940      |      88915
       5  | 19:45.41 |    5:47.02   |       88916      |     114942
       6  | 25:32.43 |    5:26.62   |      114943      |     139454
       7  | 30:59.30 |    4:49.65   |      139455      |     161194
       8  | 35:49.20 |    5:25.05   |      161195      |     185574
       9  | 41:14.25 |    7:16.70   |      185575      |     218344
      10  | 48:31.20 |   12:12.24   |      218345      |     273268

Характеристики диапазона извлечения и сообщения об ошибках

Выбранный диапазон

     Имя файла I:\BitComet\Blindside Blues Band-Smokehouse Sessions - Volume Two-The Blues Is Evil(2011)(flac)\Blindside Blues Band - Smokehouse Sessions - Volume Two-The Blues Is Evi.wav

     Пиковый уровень 97.7 %
     Качество диапазона 100.0 %
     CRC теста AF99BA89
     CRC копии AF99BA89
     Копирование... OK

Ошибок не произошло

AccurateRip: сводка

Трек  1  нет в базе данных
Трек  2  нет в базе данных
Трек  3  нет в базе данных
Трек  4  нет в базе данных
Трек  5  нет в базе данных
Трек  6  нет в базе данных
Трек  7  нет в базе данных
Трек  8  нет в базе данных
Трек  9  нет в базе данных
Трек 10  нет в базе данных

Ни одного трека нет в базе AccurateRip

Конец отчёта
Код:
Код:
-----------------------

DON'T MODIFY THIS FILE

-----------------------

PERFORMER: auCDtect Task Manager, ver. 1.6.0 RC1 build 1.6.0.1
Copyright (c) 2008-2010 y-soft. All rights reserved
http:/y-soft.org

ANALYZER: auCDtect: CD records authenticity detector, version 0.8.2
Copyright (c) 2004 Oleg Berngardt. All rights reserved.
Copyright (c) 2004 Alexander Djourik. All rights reserved.

FILE: Blindside Blues Band - Smokehouse Sessions - Volume Two-The Blues Is Evi.flac
  Size: 428328965 Hash: 810E4644CFC836EA8ACA646EA9A54971 Accuracy: -m0
  Conclusion: CDDA 100%
  Signature: 21A87D8A31E6BCFC75C5C32F524D6CDEBF29D76D
Прoдолжительность - 01:00:44
#777Трeклист:

01. Freedom (3:40)
02. Good Lovin' Man (3:35)
03. Sweet Young Thang (4:13)
04. I Can't Wait Much Longer (6:09)
05. Morning Dew (5:42)
06. The Mighty Titan (5:47)
07. I'm Your Captain (9:17)
08. Black Betty (2:28)
09. Jack Daniels Weekend (2:15)
10. Too Tired (3:54)
11. You Don't Love Me (6:06)
12. Sabbeck (4:00)
13. No Quarter (9:02)
14. Crossing Jupiter (4:18)
Код:
Код:
Exact Audio Copy V0.99 prebeta 4 from 23. January 2008

Отчёт EAC об извлечении, выполненном 18. февраля 2011, 8:35

Blindside Blues Band  / Rare Tracks

Дисковод: PLEXTOR DVDR   PX-880SA   Adapter: 1  ID: 1

Режим чтения                 : Достоверность
Использование точного потока : Да
Отключение кэша аудио        : Да
Использование указателей C2  : Нет

Коррекция смещения при чтении                     : 6
Способность читать области Lead-in и Lead-out     : Нет
Заполнение пропущенных сэмплов тишиной            : Да
Удаление блоков с тишиной в начале и конце        : Нет
При вычислениях CRC использовались нулевые сэмплы : Да
Интерфейс                                         : Установленный внешний ASPI-интерфейс

Выходной формат          : Пользовательский кодировщик
Выбранный битрейт        : 1024 kBit/s
Качество                 : Высокий
Добавление ID3-тэга      : Нет
Утилита сжатия           : C:\Program Files\Exact Audio Copy\FLAC\FLAC.EXE
Дополнительные параметры : -5 -V -T "ARTIST=%a" -T "TITLE=%t" -T "ALBUM=%g" -T "DATE=%y" -T "TRACKNUMBER=%n" -T "GENRE=%m" -T "COMMENT=%e" %s -o %d

TOC извлечённого CD

     Трек |   Старт  | Длительность | Начальный сектор | Конечный сектор
    ---------------------------------------------------------------------
       1  |  0:00.00 |    3:39.46   |           0      |      16470
       2  |  3:39.46 |    3:34.47   |       16471      |      32567
       3  |  7:14.18 |    4:12.48   |       32568      |      51515
       4  | 11:26.66 |    6:08.49   |       51516      |      79164
       5  | 17:35.40 |    5:41.48   |       79165      |     104787
       6  | 23:17.13 |    5:46.46   |      104788      |     130783
       7  | 29:03.59 |    9:16.50   |      130784      |     172533
       8  | 38:20.34 |    2:27.48   |      172534      |     183606
       9  | 40:48.07 |    2:14.48   |      183607      |     193704
      10  | 43:02.55 |    3:53.47   |      193705      |     211226
      11  | 46:56.27 |    6:05.47   |      211227      |     238648
      12  | 53:01.74 |    3:59.50   |      238649      |     256623
      13  | 57:01.49 |    9:01.46   |      256624      |     297244
      14  | 66:03.20 |    4:17.49   |      297245      |     316568

Характеристики диапазона извлечения и сообщения об ошибках

Выбранный диапазон

     Имя файла I:\BitComet\Blindside Blues Band-Rare Tracks(2011)(flac)\Blindside Blues Band  - Rare Tracks.wav

     Пиковый уровень 100.0 %
     Качество диапазона 100.0 %
     CRC теста 7632E2EC
     CRC копии 7632E2EC
     Копирование... OK

Ошибок не произошло

AccurateRip: сводка

Трек  1  нет в базе данных
Трек  2  нет в базе данных
Трек  3  нет в базе данных
Трек  4  нет в базе данных
Трек  5  нет в базе данных
Трек  6  нет в базе данных
Трек  7  нет в базе данных
Трек  8  нет в базе данных
Трек  9  нет в базе данных
Трек 10  нет в базе данных
Трек 11  нет в базе данных
Трек 12  нет в базе данных
Трек 13  нет в базе данных
Трек 14  нет в базе данных

Ни одного трека нет в базе AccurateRip
Код:
Код:
-----------------------

DON'T MODIFY THIS FILE

-----------------------

PERFORMER: auCDtect Task Manager, ver. 1.6.0 RC1 build 1.6.0.1
Copyright (c) 2008-2010 y-soft. All rights reserved
http:/y-soft.org

ANALYZER: auCDtect: CD records authenticity detector, version 0.8.2
Copyright (c) 2004 Oleg Berngardt. All rights reserved.
Copyright (c) 2004 Alexander Djourik. All rights reserved.

FILE: Blindside Blues Band  - Rare Tracks.flac
  Size: 479011673 Hash: E0BC5F724493A316C4B6DAC4F1195668 Accuracy: -m0
  Conclusion: MPEG 95%
  Signature: 8BD09B36B6326A6B21A05F32DEAE80676C36E85B
Прoдолжительность - 01:10:21
FLAC (image+.cue)
#777Трeклист:

01. Gravy Train (4:37)
02. Generator (4:52)
03. Power of the Blues (5:31)
04. Bluesin' (4:43)
05. Goin 'Crosstown (6:05)
06. Lovin You (6:02)
07. Genevieve (8:04)
08. Slow Down (4:52)
09. Gonna Leave This Town (4:55)
10. Wandering Man (5:57)
11. Bonus Jam (9:36)
Код:
Код:
Exact Audio Copy V0.99 prebeta 5 from 4. May 2009

Отчёт EAC об извлечении, выполненном 17. июля 2012, 19:20

Blindside Blues Band / Generator

Дисковод: PLEXTOR DVDR   PX-880SA   Adapter: 1  ID: 0

Режим чтения                 : Достоверность
Использование точного потока : Да
Отключение кэша аудио        : Да
Использование указателей C2  : Нет

Коррекция смещения при чтении                     : 6
Способность читать области Lead-in и Lead-out     : Нет
Заполнение пропущенных сэмплов тишиной            : Да
Удаление блоков с тишиной в начале и конце        : Нет
При вычислениях CRC использовались нулевые сэмплы : Да
Интерфейс                                         : Установленный внешний ASPI-интерфейс

Выходной формат          : Пользовательский кодировщик
Выбранный битрейт        : 1024 kBit/s
Качество                 : Высокий
Добавление ID3-тэга      : Нет
Утилита сжатия           : C:\Program Files\Exact Audio Copy\FLAC\FLAC.EXE
Дополнительные параметры : -6 -V -T "ARTIST=%a" -T "TITLE=%t" -T "ALBUM=%g" -T "DATE=%y" -T "TRACKNUMBER=%n" -T "GENRE=%m" -T "COMMENT=%e" %s -o %d

TOC извлечённого CD

     Трек |   Старт  | Длительность | Начальный сектор | Конечный сектор
    ---------------------------------------------------------------------
       1  |  0:00.00 |    4:36.64   |           0      |      20763
       2  |  4:36.64 |    4:52.21   |       20764      |      42684
       3  |  9:29.10 |    5:30.41   |       42685      |      67475
       4  | 14:59.51 |    4:42.60   |       67476      |      88685
       5  | 19:42.36 |    6:04.68   |       88686      |     116053
       6  | 25:47.29 |    6:01.42   |      116054      |     143170
       7  | 31:48.71 |    8:03.74   |      143171      |     179469
       8  | 39:52.70 |    4:51.68   |      179470      |     201362
       9  | 44:44.63 |    4:55.19   |      201363      |     223506
      10  | 49:40.07 |    5:57.22   |      223507      |     250303
      11  | 55:37.29 |    9:35.51   |      250304      |     293479

Характеристики диапазона извлечения и сообщения об ошибках

Выбранный диапазон

     Имя файла F:\BitComet\Blindside Blues Band - Generator(2012)(flac)\Blindside Blues Band - Generator.wav

     Пиковый уровень 100.0 %
     Качество диапазона 100.0 %
     CRC теста D4E03B93
     CRC копии D4E03B93
     Копирование... OK

Ошибок не произошло

AccurateRip: сводка

Трек  1  нет в базе данных
Трек  2  нет в базе данных
Трек  3  нет в базе данных
Трек  4  нет в базе данных
Трек  5  нет в базе данных
Трек  6  нет в базе данных
Трек  7  нет в базе данных
Трек  8  нет в базе данных
Трек  9  нет в базе данных
Трек 10  нет в базе данных
Трек 11  нет в базе данных

Ни одного трека нет в базе AccurateRip

Конец отчёта
Код:
Код:
-----------------------

DON'T MODIFY THIS FILE

-----------------------

PERFORMER: auCDtect Task Manager, ver. 1.6.0 RC1 build 1.6.0.1
Copyright (c) 2008-2010 y-soft. All rights reserved
http:/y-soft.org

ANALYZER: auCDtect: CD records authenticity detector, version 0.8.2
Copyright (c) 2004 Oleg Berngardt. All rights reserved.
Copyright (c) 2004 Alexander Djourik. All rights reserved.

FILE: Blindside Blues Band - Generator.flac
  Size: 517707448 Hash: 6668AB2E2B11D7FFD0B3BE6BF9610332 Accuracy: -m0
  Conclusion: CDDA 100%
  Signature: 58BAE3CBBD258E75EB7B8D6E36B67CA4780AB391
Прoдолжительность - 01:05:13
FLAC (image+.cue)
#777Трeклист:

01. Let The Blues Do The Healing (4:50)
02. Crying Shame (8:01)
03. Night Train (5:31)
04. Raised On Rock (5:20)
05. Born With The Blues (5:32)
06. Renegade (4:20)
07. Hot Shot (4:20)
08. Smokehouse Shuffle (4:46)
09. Bad Luck (5:59)
10. Crossroads (4:41)
11. Climb The Sky (5:08)
12. Mojo Highway (5:43)
13. Ramblin' On My Mind (10:38)
Код:
Код:
Exact Audio Copy V0.99 prebeta 4 from 23. January 2008

Отчёт EAC об извлечении, выполненном 27. апреля 2012, 21:27

Blindside Blues Band / Live At The Crossroads

Дисковод: PLEXTOR DVDR   PX-880SA   Adapter: 1  ID: 1

Режим чтения                 : Достоверность
Использование точного потока : Да
Отключение кэша аудио        : Да
Использование указателей C2  : Нет

Коррекция смещения при чтении                     : 6
Способность читать области Lead-in и Lead-out     : Нет
Заполнение пропущенных сэмплов тишиной            : Да
Удаление блоков с тишиной в начале и конце        : Нет
При вычислениях CRC использовались нулевые сэмплы : Да
Интерфейс                                         : Встроенный Win32-интерфейс для Win NT/2000

Выходной формат          : Пользовательский кодировщик
Выбранный битрейт        : 1024 kBit/s
Качество                 : Высокий
Добавление ID3-тэга      : Нет
Утилита сжатия           : C:\Program Files\Exact Audio Copy\FLAC\FLAC.EXE
Дополнительные параметры : -6 -V -T "ARTIST=%a" -T "TITLE=%t" -T "ALBUM=%g" -T "DATE=%y" -T "TRACKNUMBER=%n" -T "GENRE=%m" -T "COMMENT=%e" %s -o %d

TOC извлечённого CD

     Трек |   Старт  | Длительность | Начальный сектор | Конечный сектор
    ---------------------------------------------------------------------
       1  |  0:00.00 |    4:50.03   |           0      |      21752
       2  |  4:50.03 |    8:01.32   |       21753      |      57859
       3  | 12:51.35 |    5:31.03   |       57860      |      82687
       4  | 18:22.38 |    5:20.11   |       82688      |     106698
       5  | 23:42.49 |    5:32.26   |      106699      |     131624
       6  | 29:15.00 |    4:19.49   |      131625      |     151098
       7  | 33:34.49 |    4:19.45   |      151099      |     170568
       8  | 37:54.19 |    4:46.04   |      170569      |     192022
       9  | 42:40.23 |    5:59.35   |      192023      |     218982
      10  | 48:39.58 |    4:41.08   |      218983      |     240065
      11  | 53:20.66 |    5:08.12   |      240066      |     263177
      12  | 58:29.03 |    5:42.46   |      263178      |     288873
      13  | 64:11.49 |   10:38.35   |      288874      |     336758

Характеристики диапазона извлечения и сообщения об ошибках

Выбранный диапазон

     Имя файла J:\BitComet\Blindside Blues Band - Live At The Crossroads(2012)(flac)\Blindside Blues Band - Live At The Crossroads.wav

     Пиковый уровень 100.0 %
     Качество диапазона 100.0 %
     CRC теста 9E2EBADD
     CRC копии 9E2EBADD
     Копирование... OK

Ошибок не произошло

AccurateRip: сводка

Трек  1  нет в базе данных
Трек  2  нет в базе данных
Трек  3  нет в базе данных
Трек  4  нет в базе данных
Трек  5  нет в базе данных
Трек  6  нет в базе данных
Трек  7  нет в базе данных
Трек  8  нет в базе данных
Трек  9  нет в базе данных
Трек 10  нет в базе данных
Трек 11  нет в базе данных
Трек 12  нет в базе данных
Трек 13  нет в базе данных

Ни одного трека нет в базе AccurateRip

Конец отчёта
Код:
Код:
-----------------------

DON'T MODIFY THIS FILE

-----------------------

PERFORMER: auCDtect Task Manager, ver. 1.6.0 RC1 build 1.6.0.1
Copyright (c) 2008-2010 y-soft. All rights reserved
http:/y-soft.org

ANALYZER: auCDtect: CD records authenticity detector, version 0.8.2
Copyright (c) 2004 Oleg Berngardt. All rights reserved.
Copyright (c) 2004 Alexander Djourik. All rights reserved.

FILE: Blindside Blues Band - Live At The Crossroads.flac
  Size: 597903948 Hash: F6675AD4513BE57D01EB6D824CF32896 Accuracy: -m0
  Conclusion: CDDA 100%
  Signature: 5819AE9270E960A6985301A4C3CCC9689993D992
Прoдолжительность - 01:14:50
FLAC (image+.cue)
#777Трeклист:

01. The Destroyer (5:14)
02. In The Name Of Rock N' Roll (4:36)
03. Keeping The Flame Alive (5:35)
04. Nothing Can Hold Me Down (5:52)
05. Warzone (Dogs Of Doom) (5:06)
06. Good Times Bad Times (3:33)
07. Speed Freak (5:18)
08. Sacred Sun (4:53)
09. Can't Make You Love Me (4:18)
10. Child Of The Sky (7:15)
Код:
Код:
Exact Audio Copy V1.0 beta 3 from 29. August 2011

Отчёт EAC об извлечении, выполненном 6. апреля 2015, 20:11

Mike Onesko's Guitar Army / In The Name Of Rock N' Roll

Дисковод: PLEXTOR DVDR   PX-880SA   Adapter: 1  ID: 0

Режим чтения                 : Достоверность
Использование точного потока : Да
Отключение кэша аудио        : Да
Использование указателей C2  : Нет

Коррекция смещения при чтении                     : 6
Способность читать области Lead-in и Lead-out     : Нет
Заполнение пропущенных сэмплов тишиной            : Да
Удаление блоков с тишиной в начале и конце        : Нет
При вычислениях CRC использовались нулевые сэмплы : Да
Интерфейс                                         : Установленный внешний ASPI-интерфейс

Выходной формат          : Пользовательский кодировщик
Выбранный битрейт        : 1024 kBit/s
Качество                 : Высокий
Добавление ID3-тега      : Нет
Утилита сжатия           : C:\Program Files\Exact Audio Copy\FLAC\FLAC.EXE
Дополнительные параметры : -10 -V -T "ARTIST=%artist%" -T "ALBUM=%albumtitle%" -T "DATE=%year%" -T "GENRE=%genre%" -T "COMMENT=ripped by izia1956" %source%

TOC извлечённого CD

     Трек |   Старт  | Длительность | Начальный сектор | Конечный сектор
    ---------------------------------------------------------------------
       1  |  0:00.00 |    5:14.08   |           0      |      23557
       2  |  5:14.08 |    4:35.46   |       23558      |      44228
       3  |  9:49.54 |    5:34.50   |       44229      |      69328
       4  | 15:24.29 |    5:51.64   |       69329      |      95717
       5  | 21:16.18 |    5:06.07   |       95718      |     118674
       6  | 26:22.25 |    3:32.57   |      118675      |     134631
       7  | 29:55.07 |    5:18.06   |      134632      |     158487
       8  | 35:13.13 |    4:53.18   |      158488      |     180480
       9  | 40:06.31 |    4:17.46   |      180481      |     199801
      10  | 44:24.02 |    7:14.64   |      199802      |     232415

Характеристики диапазона извлечения и сообщения об ошибках

Выбранный диапазон

     Имя файла D:\BitComet\Mike Onesko's Guitar Army - In The Name Of Rock N' Roll(2015)(flac)\Mike Onesko's Guitar Army - In The Name Of Rock N' Roll.wav

     Пиковый уровень 100.0 %
     Скорость извлечения 2.5 X
     Качество диапазона 99.9 %
     CRC теста BA8DA8CE
     CRC копии BA8DA8CE
     Копирование... OK

Ошибок не произошло

AccurateRip: сводка

Трек  1  отсутствует в базе данных
Трек  2  отсутствует в базе данных
Трек  3  отсутствует в базе данных
Трек  4  отсутствует в базе данных
Трек  5  отсутствует в базе данных
Трек  6  отсутствует в базе данных
Трек  7  отсутствует в базе данных
Трек  8  отсутствует в базе данных
Трек  9  отсутствует в базе данных
Трек 10  отсутствует в базе данных

Ни одного трека нет в базе AccurateRip

Конец отчёта

==== Контрольная сумма отчёта 403688FFE9BD4C180D254C1B8ABB110EC1F95C8F26F2594A5FA22AD49CD1D976 ====
Код:
Код:
-----------------------

DON'T MODIFY THIS FILE

-----------------------

PERFORMER: auCDtect Task Manager, ver. 1.6.0 RC1 build 1.6.0.1
Copyright (c) 2008-2010 y-soft. All rights reserved
http:/y-soft.org

ANALYZER: auCDtect: CD records authenticity detector, version 0.8.2
Copyright (c) 2004 Oleg Berngardt. All rights reserved.
Copyright (c) 2004 Alexander Djourik. All rights reserved.

FILE: Mike Onesko's Guitar Army - In The Name Of Rock N' Roll.flac
  Size: 439102498 Hash: 9B4E7F8953B4775C903B89A1A0097B79 Accuracy: -m0
  Conclusion: CDDA 100%
  Signature: 2BB83549CFD62B37C87517009BEA096BACC34FF8
Прoдолжительность - 00:51:39
FLAC (image+.cue)

Рипы: staskurov, Stormhunter, ЗУБ2007, izia1956
#777#777#777#777#777



В зрелой юности 17-ти лет Майк Онеско уехал из его родного Fairview Park Ohio для лучшей жизни в Сан-Франциско только с $ 60 и его гитарой, он автостопом проделал свой путь по стране, пока не прибыл в S.F. Не долго думая, он сформировал трио Sundog и начались его музыкальные путешествия. Затем был Steelwind, Джон Вармут(John Warmouth) на барабанах и Уокер Кэек(Walker Kaeck) на вокале. Они были хедлайнерами на стадионе Kezar и только спустя три года после них Led Zeppelin играли там! Kwik и Three Man Army были следующими и далее Robin Trower, Montrose, Nazareth, Great White, Mitch Ryder, Clarence Clemons. Они сформировали Blindside Blues Band со Скоттом Джонсон(Scott Johnson) на гитаре, Джефф Мартин(Jeff Martin) на барабанах и Грегг Чэйссон(Gregg Chaisson) на бас-гитаре. Группа сделала три записи в этом составе. Грегг сыграл только на записи, он никогда не любил концертов с группой! Эта обязанность была заполнена превосходно Kier Staeheli. Так же играли в составе Blindside Blues Band Майк Варни(Mike Varney), Aysnley Dunbar, James Lomenzo.
Попутно Майк Онеско играл Cream of The Crop a tribute to Cream вместе с Pat Travers, Leslie West Tim Bogert, Rick Derrigner, Glenn Hughes, Neal Schon..! Майк сотрудничал с Comet Records в Италии, чтобы сделать запись таких проектов, как Mike Onesko,s Guitar Army, Smokehouse Sessions, Live At The Torrita Blues Festival, Italy и Voodoo Crossing and Gypsy Blood both hendrix tributes. Недавно Майк и Blindside Blues Band закончили новый альбом Raised on Rock (2010) с помощью многих друзей: Davey Pattison, Mike Varney, Derek Reeve, Barry Prior, Jeff Martin!

Альбомы
1993 Blindside Blues Band
1994 Blindsided
1995 Messenger of the Blues
1996 To the Station
2001 Mike Onesko's Guitar Army - Armageddon
2004 Mike Onesko Blues Band - Smokehouse Sessions
2006 Long Hard Road
2008 Keepers of the Flame
2009 Blindside Blues Band - Smokehouse Sessions
2009 Onesco,Bogert,Ceo Project - Big Electric Cream Jam
2010 Raised On Rock
2011 Smokehouse Sessions - Volume Two-The Blues Is Evil
2011 Blindside Blues Band - Rare Tracks
2012 Live At The Crossroads
2012 Blindside Blues Band - Generator
2015 Mike Onesko's Guitar Army - In The Name Of Rock N' Roll

Группы Mike Onesko
SUNDOG-1972-74
MIKE ONESKO-GUITAR,VOCALS
FRANK ELLESETCHE-BASS GUITAR
RICK TOBIN-DRUMS
BOB RYDELL-DRUMS
HAROLD PARKER-DRUMS

SLEDGE-1972-73
MIKE ONESKO-GUITARS
VICTOR GARGANO-VOCALS
RON FAZZIO-DRUMS
FRANK ELLESETCHE-BASS GUITAR
DENNIS COLLINS-BASS GUITAR

DIAMOND FIRE-1974-75
MIKE ONESKO-GUITARS
VICTOR GARGANO-VOCALS
JOHN WARMOUTH-DRUMS
BOB HATHAWAY-DRUMS
PAUL ALVAREZ-BASS GUITAR

MAIN DRIVE-1975-76
MIKE ONESKO-GUITARS
WALKER KAECK-VOCALS
ROGER BERGEN-GUITARS
RICK MORRISON-DRUMS
BERT WYNN-BASS GUITAR

STEELWIND-1976-82
MIKE ONESKO-GUITARS
WALKER KAECK-VOCALS
JOHN WARMOUTH-DRUMS
STEVE HAWTHORNE-BASS GUITAR
MARK KINGEN-BASS GUITAR
MIKE STEFANSKI-KEYBOARDS
DAVE SVWENDIG-KEYBOARDS
TOMMY MERRY-GUITAR
ANDY TOHMFORDE-VOCALS
BARRY PRIOR-BASS GUITAR

NO QUESTIONS-1982-83
MIKE ONESKO-GUITARS
ANDY TOHMFORDE-VOCALS
BARRY PRIOR-BASS GUITAR
HAROLD PARKER-DRUMS

HYSTERIA-1983-85
MIKE ONESKO-GUITARS,VOCALS
DEREK REEVE-BASS GUTAR,VOCALS
DAVE WALKER-VOCALS
JOE HENNESSEY-GUITARS
MICKY BLODGETT-DRUMS

THE KWIK-1985-89
MIKE ONESKO-GUITARS,VOCALS
DEREK REEVE-BASS GUITAR,VOCALS
BARRY PRIOR-BASS GUITAR,KEYBOARDS
CHRIS ALLISON-DRUMS
MICKEY BLODGETT-DRUMS
PHIL DANIELSON-DRUMS
WALKER KAECK-GUITAR,VOCAL
BRUCE GHERKE-KEYBOARDS

THREE MAN ARMY-1989-91
MIKE ONESKO-GUITARS,VOCALS
JIM McCULLOUGH-DRUMS
TIM O'BRIEN-BASS GUITAR
TONY PETERSON-BASS GUITAR

MIKE ONESKO BAND-1991-1992
MIKE ONESKO-GUITARS,VOCALS
DEREK REEVE-BASS GUITAR
CHRIS GUSTAFTSON-DRUMS
JIMMY MAC-DRUMS
MARCO PALMER-BASS GUITAR
JERSEY DAVE-DRUMS
BILL LORDAN-DRUMS
STEVIE BASS,BASS GUITAR

ONESKO,BALDWIN,AND REEVE-1992-93
MIKE ONESKO-GUITARS,VOCALS
DEREK REEVE-BASS GUITAR
DONNY BALDWIN-DRUMS

ONESKO-PATTISON BAND-1993
MIKEONESKO-GUITAR,VOCALS
DAVEY PATTISON,GUITAR,VOCALS

BLINDSIDE BLUES BAND-1993-?
MIKE ONESKO-GUITARS,VOCALS
SCOTT JOHNSON-GUITARS
JEFF MARTIN-DRUMS
AYNSLEY DUNBAR-DRUMS
EMERY CEO-DRUMS
GREGG CHAISSON-BASS GUITAR
KIER STAEHELI-BASS GUITAR
JAMES LOMENZO-BASS GUITAR
MARK CHOLEY BASS GUITAR
BILL GRESSOCK-GUITARS
MIKE VARNEY-GUITARS
MICHAEL BARRICK-BASS GUITAR
MARK TAVERNA-BASS GUITAR
CHRIS BORAS-BASS GUITAR

MIKE ONESKO' GUITAR ARMY-2001
MIKE ONESKO-GUITAR,VOCALS
BILL GRESSOCK-GUITAR
MIKE VARNEY-GUITAR
LUIS MALDONADO-GUITAR
AARRON ADKINS-GUITAR
BILLY MORRIS-GUITAR
FLETCHER LITTLE-BASS GUITAR
FRANK SNYDER-BASS GUITAR
BRIAN WOLF-DRUMS

MIKE ONESKO BLUES BAND-2004
MIKE ONESKO-GUITARS,VOCALS
BILL GRESSOCK-GUITAR
EMERY CEO-DRUMS
KIER STAEHILI-BASS GUITAR

RED DIRT BLUES BAND-1988-89
TIM REEVE-Guitar,Vocals- Jersey
Dave-Drums
DEREK REEVE-Bass,Vocals
MIKE ONESKO-Drums Phil
Danielson-Drums

ONESKO-BOGERT-CEO Project-2003
MIKE ONESKO-GUITAR,VOCALS
TIM BOGERT-BASS GUITAR,VOCALS
EMERY CEO-DRUMS,VOCALS
Правила, инструкции, FAQ!!!
Торрент  Добавлен [06 авг 2016, 17:45] Скачать торрент Магнет ссылка
Скачать торрент
[ Размер 39.59 КБ / Просмотров 213 ]

Статус
Проверен 
 
Размер  7.15 ГБ
Приватный: Нет (DHT включён)
.torrent скачан  8
Как залить торрент? | Как скачать Torrent? | Ошибка в торренте? Качайте магнет  


     Отправить личное сообщение
   

СообщениеДобавлено: 06 авг 2016, 16:49 

Ответить с цитатой 

Зарегистрированные пользователи
Зарегистрированные пользователи

Стаж: 3 года 18 дней
Раздал: 8.77 ГБ
Скачал: 0 байт
Ратио: Seed.
Торренты: 0
Pleese Seeed


Профиль     Отправить личное сообщение
   

СообщениеДобавлено: 06 авг 2016, 17:48 

Ответить с цитатой 

Администратор
Администратор
Аватара пользователя

Стаж: 6 лет 10 месяцев 6 дней
Раздал: 290.91 ГБ
Скачал: 158.38 ГБ
Ратио: 1.837
Торренты: 15
обновил торрент файл, перекачайте заново :ay:

_________________
Не скачивается раздача? напишите об этом в теме!


Профиль     Отправить личное сообщение
   
Страница 1 из 1
Показать сообщения за:  Поле сортировки  
Начать новую тему Ответить на тему


Сейчас этот форум просматривают: нет зарегистрированных пользователей и гости: 0


Вы не можете начинать темы
Вы не можете отвечать на сообщения
Вы не можете редактировать свои сообщения
Вы не можете удалять свои сообщения
Вы не можете добавлять вложения

Перейти:  
Ресурс не предоставляет электронные версии произведений, а занимается лишь коллекционированием и каталогизацией ссылок, присылаемых и публикуемых на форуме нашими читателями. Если вы являетесь правообладателем какого-либо представленного материала и не желаете чтобы ссылка на него находилась в нашем каталоге, свяжитесь с нами и мы незамедлительно удалим её. Файлы для обмена на трекере предоставлены пользователями сайта, и администрация не несёт ответственности за их содержание. Просьба не заливать файлы, защищенные авторскими правами, а также файлы нелегального содержания!