Начать новую тему Ответить на тему
Статистика раздачи
Размер: 976.44 МБ | Добавлен: 08 июн 2019, 08:56 | Скачали: 2
Сидеров: 0  [0 байт/сек]    Личеров: 0  [0 байт/сек]
Пред. тема | След. тема 

Автор
Сообщение

СообщениеДобавлено: 08 июн 2019, 08:57 

Ответить с цитатой 

Sandrine Piau, Le Concert de la Loge, Julien Chauvin / Si J’ai Aime
Формат записи/Источник записи: [TR24][OF]
Наличие водяных знаков: Нет
Год издания/переиздания диска: 2019
Жанр: Classical
Издатель (лейбл): Alpha
Продолжительность: 00:59:16
Наличие сканов в содержимом раздачи: Буклет PDF
Треклист:
01. Saint-Saëns: Extase (Hugo) 3:42
02. Saint-Saëns: Papillons 3:23
03. Bordes: Promenade matinale 3:29
04. Berlioz: Au cimetière (from Les nuits d'été, Op. 7) 5:17
05. Massenet: Le poète et le fantôme 3:32
06. Pierné, G: Chanson d'Autrefois 1:59
07. Dubois, T: Si j'ai parlé… si j'ai aimé 2:48
08. Berlioz: Villanelle (from Les nuits d'été, Op. 7) 1:59
09. Dubois, T: Promenade à l'étang 3:13
10. Vierne, L: Trois mélodies, Op. 11: Beaux papillons blancs 1:31
11. Dubois, T: Aux étoiles 4:44
12. Guilmant: Ce que dit le silence 3:13
13. Dubois, T: Sous le saule 2:44
14. Saint-Saëns: Aimons-nous 3:39
15. Massenet: Valse très lente 3:38
16. Saint-Saëns: L'Enlèvement (V. Hugo) 1:53
17. Godard, B: Symphonie gothique, Op. 23: Grave 5:44
18. Martini, J P: Plaisir d'amour 2:48
Sandrine Piau (soprano)
Le Concert de la Loge, Julien Chauvin
Контейнер: FLAC (*.flac)
Тип рипа: tracks
Разрядность: 24/96
Формат: PCM
Количество каналов: 2.0
Код:
foobar2000 1.4.3 / Dynamic Range Meter 1.1.1
log date: 2019-06-04 22:14:25
--------------------------------------------------------------------------------
Analyzed: Le Concert de la Loge / Si j'ai aimé (1-4)
          Sandrine Piau / Si j'ai aimé (5-18)
--------------------------------------------------------------------------------
DR         Peak         RMS     Duration Track
--------------------------------------------------------------------------------
DR14     -11.90 dB   -31.90 dB      1:59 06-Album pour mes petits amis, Op. 14: Chanson d'autrefois
DR13      -4.05 dB   -25.01 dB      4:45 11-Aux étoiles
DR13      -6.41 dB   -25.75 dB      3:38 15-Valse très lente
DR14      -4.32 dB   -25.04 dB      5:45 17-Symphonie gothique, Op. 23: Grave
DR15      -1.46 dB   -22.58 dB      3:43 01-Extase
DR15      -0.52 dB   -20.76 dB      3:24 02-Papillons
DR14       0.00 dB   -19.19 dB      3:29 03-Promenade matinale
DR15       0.00 dB   -20.44 dB      5:17 04-Les Nuits d'été, H. 81: Au cimetière
DR15      -1.48 dB   -22.17 dB      3:33 05-Le Poète et le Fantôme
DR15       0.00 dB   -21.11 dB      2:48 07-Si j'ai parlé... Si j'ai aimé
DR14      -1.81 dB   -19.86 dB      2:00 08-Les Nuits d'été, H. 81: Villanelle
DR14       0.00 dB   -21.16 dB      3:13 09-Musiques sur l'eau: Promenade à l'étang
DR12      -2.77 dB   -21.31 dB      1:32 10-Trois mélodies, Op. 11: Beaux papillons blancs
DR14      -0.22 dB   -19.35 dB      3:14 12-Ce que dit le silence
DR14      -0.57 dB   -21.10 dB      2:44 13-Sous le saule
DR13       0.00 dB   -18.28 dB      3:40 14-Aimons-nous
DR14      -4.91 dB   -22.73 dB      1:54 16-L'enlèvement
DR14       0.00 dB   -21.37 dB      2:48 18-Plaisir d'amour
--------------------------------------------------------------------------------
Number of tracks:  18
Official DR value: DR14
Samplerate:        96000 Hz
Channels:          2
Bits per sample:   24
Bitrate:           2296 kbps
Codec:             FLAC
================================================================================
Источник (релизер): https://www.qobuz.com/us-en/album/si-jai-aime-sandrine-piau-le-concert-de-la-loge...in/g8mw67d19o4fa
Правила, инструкции, FAQ!!!
Торрент  Добавлен [08 июн 2019, 08:56] Скачать торрент Магнет ссылка
Скачать торрент
[ Размер 39.83 КБ / Просмотров 6 ]

Статус
Проверен 
 
Размер  976.44 МБ
Приватный: Нет (DHT включён)
.torrent скачан  2
Как залить торрент? | Как скачать Torrent? | Ошибка в торренте? Качайте магнет  


     Отправить личное сообщение
   
Страница 1 из 1
Показать сообщения за:  Поле сортировки  
Начать новую тему Ответить на тему


Сейчас этот форум просматривают: нет зарегистрированных пользователей и гости: 0


Вы не можете начинать темы
Вы не можете отвечать на сообщения
Вы не можете редактировать свои сообщения
Вы не можете удалять свои сообщения
Вы не можете добавлять вложения

Перейти:  
Ресурс не предоставляет электронные версии произведений, а занимается лишь коллекционированием и каталогизацией ссылок, присылаемых и публикуемых на форуме нашими читателями. Если вы являетесь правообладателем какого-либо представленного материала и не желаете чтобы ссылка на него находилась в нашем каталоге, свяжитесь с нами и мы незамедлительно удалим её. Файлы для обмена на трекере предоставлены пользователями сайта, и администрация не несёт ответственности за их содержание. Просьба не заливать файлы, защищенные авторскими правами, а также файлы нелегального содержания!
cron