Начать новую тему Ответить на тему
Статистика раздачи
Размер: 1.03 ГБ | Добавлен: 08 июн 2019, 08:56 | Скачали: 1
Сидеров: 0  [0 байт/сек]    Личеров: 0  [0 байт/сек]
Пред. тема | След. тема 

Автор
Сообщение

СообщениеДобавлено: 08 июн 2019, 08:56 

Ответить с цитатой 

Barry Douglas / Schubert - Works for Solo Piano Volume 4
Формат записи/Источник записи: [TR24][OF]
Наличие водяных знаков: Нет
Год издания/переиздания диска: 2019
Жанр: Classical
Издатель (лейбл): Chandos
Продолжительность: 01:08:36
Наличие сканов в содержимом раздачи: Буклет PDF
Треклист:
Schubert: Piano Sonata No. 9 in B major, D575 24:19
01. I. Allegro ma non troppo 8:03
02. II. Andante 6:18
03. III. Scherzo. Allegretto 5:17
04. IV. Allegro giusto 4:41
Schubert: Piano Sonata No. 4 in A minor, D537 24:20
05. I. Allegro ma non troppo 11:05
06. II. Allegretto quasi andantino 8:14
07. III. Allegro vivace 5:01
Schubert: Piano Sonata No. 13 in A major, D664 19:57
08. I. Allegro moderato 8:10
09. II. Andante 4:35
10. III. Allegro 7:12
Barry Douglas (piano)
Контейнер: FLAC (*.flac)
Тип рипа: tracks
Разрядность: 24/96
Формат: PCM
Количество каналов: 2.0
Код:
foobar2000 1.4.3 / Dynamic Range Meter 1.1.1
log date: 2019-05-30 10:36:04
--------------------------------------------------------------------------------
Analyzed: Barry Douglas / Schubert: Works for Solo Piano, Vol. 4
--------------------------------------------------------------------------------
DR         Peak         RMS     Duration Track
--------------------------------------------------------------------------------
DR16      -3.05 dB   -25.68 dB      8:03 01-Piano Sonata No. 9 in B Major, Op. Posth. 147, D. 575: I. Allegro ma non troppo
DR18      -3.00 dB   -27.88 dB      6:18 02-Piano Sonata No. 9 in B Major, Op. Posth. 147, D. 575: II. Andante
DR16      -5.44 dB   -25.05 dB      5:18 03-Piano Sonata No. 9 in B Major, Op. Posth. 147, D. 575: III. Scherzo. Allegretto
DR13      -3.64 dB   -22.53 dB      4:42 04-Piano Sonata No. 9 in B Major, Op. Posth. 147, D. 575: IV. Allegro giusto
DR15      -1.84 dB   -22.18 dB     11:06 05-Piano Sonata No. 4 in A Minor, Op. Posth. 164, D. 537: I. Allegro ma non troppo
DR15      -9.05 dB   -30.25 dB      8:15 06-Piano Sonata No. 4 in A Minor, Op. Posth. 164, D. 537: II. Allegretto quasi andantino
DR15      -2.92 dB   -23.59 dB      5:02 07-Piano Sonata No. 4 in A Minor, Op. Posth. 164, D. 537: III. Allegro vivace
DR16      -2.74 dB   -26.12 dB      8:10 08-Piano Sonata No. 13 in A Major, Op. Posth. 120, D. 664: I. Allegro moderato
DR16      -6.17 dB   -29.20 dB      4:35 09-Piano Sonata No. 13 in A Major, Op. Posth. 120, D. 664: II. Andante
DR14      -1.07 dB   -22.14 dB      7:12 10-Piano Sonata No. 13 in A Major, Op. Posth. 120, D. 664: III. Allegro
--------------------------------------------------------------------------------
Number of tracks:  10
Official DR value: DR15
Samplerate:        96000 Hz
Channels:          2
Bits per sample:   24
Bitrate:           2179 kbps
Codec:             FLAC
================================================================================
Источник (релизер): https://www.qobuz.com/us-en/album/schubert-works-for-solo-piano-vol-4-barry-douglas/w317ashk3rv5a
Правила, инструкции, FAQ!!!
Торрент  Добавлен [08 июн 2019, 08:56] Скачать торрент Магнет ссылка
Скачать торрент
[ Размер 42.84 КБ / Просмотров 6 ]

Статус
Проверен 
 
Размер  1.03 ГБ
Приватный: Нет (DHT включён)
.torrent скачан  1
Как залить торрент? | Как скачать Torrent? | Ошибка в торренте? Качайте магнет  


     Отправить личное сообщение
   
Страница 1 из 1
Показать сообщения за:  Поле сортировки  
Начать новую тему Ответить на тему


Сейчас этот форум просматривают: нет зарегистрированных пользователей и гости: 0


Вы не можете начинать темы
Вы не можете отвечать на сообщения
Вы не можете редактировать свои сообщения
Вы не можете удалять свои сообщения
Вы не можете добавлять вложения

Перейти:  
Ресурс не предоставляет электронные версии произведений, а занимается лишь коллекционированием и каталогизацией ссылок, присылаемых и публикуемых на форуме нашими читателями. Если вы являетесь правообладателем какого-либо представленного материала и не желаете чтобы ссылка на него находилась в нашем каталоге, свяжитесь с нами и мы незамедлительно удалим её. Файлы для обмена на трекере предоставлены пользователями сайта, и администрация не несёт ответственности за их содержание. Просьба не заливать файлы, защищенные авторскими правами, а также файлы нелегального содержания!
cron