Начать новую тему Ответить на тему
Статистика раздачи
Размер: 915.59 МБ | Добавлен: 08 июн 2019, 08:56 | Скачали: 1
Сидеров: 0  [0 байт/сек]    Личеров: 0  [0 байт/сек]
Пред. тема | След. тема 

Автор
Сообщение

СообщениеДобавлено: 08 июн 2019, 08:56 

Ответить с цитатой 

Yolanda Kondonassis, The Rochester Philharmonic Orchestra, Ward Stare / Barber, Higdon - American Rapture
Формат записи/Источник записи: [TR24][OF]
Наличие водяных знаков: Нет
Год издания/переиздания диска: 2019
Жанр: Classical
Издатель (лейбл): Azica Records
Продолжительность: 00:51:50
Наличие сканов в содержимом раздачи: Только обложка альбома
Треклист:
Higdon: Harp Concerto 21:08 - Yolanda Kondonassis (harp)
01. I. First Light 6:52
02. II. Joy Ride 4:36
03. III. Lullaby 4:54
04. IV. Rap Knock 4:46
05. Barber: Symphony No. 1, Op. 9 21:55
06. Patrick Harlin: Rapture 8:44
The Rochester Philharmonic Orchestra
Ward Stare
Контейнер: FLAC (*.flac)
Тип рипа: tracks
Разрядность: 24/96
Формат: PCM
Количество каналов: 2.0
Код:
foobar2000 1.4.3 / Dynamic Range Meter 1.1.1
log date: 2019-05-28 18:01:28
--------------------------------------------------------------------------------
Analyzed: Yolanda Kondonassis, The Rochester Philharmonic Orchestra & Ward Stare / American Rapture
--------------------------------------------------------------------------------
DR         Peak         RMS     Duration Track
--------------------------------------------------------------------------------
DR13      -4.52 dB   -24.29 dB      6:52 01-Harp Concerto: I. First Light
DR16      -0.35 dB   -22.30 dB      4:36 02-Harp Concerto: II. Joy Ride
DR13      -9.44 dB   -27.59 dB      4:55 03-Harp Concerto: III. Lullaby
DR11      -0.32 dB   -16.10 dB      4:46 04-Harp Concerto: IV. Rap Knock
DR10      -0.32 dB   -15.37 dB     21:56 05-Symphony No. 1, Op. 9 (In One Movement)
DR12      -0.32 dB   -18.02 dB      8:45 06-Rapture (Version for Orchestra)
--------------------------------------------------------------------------------
Number of tracks:  6
Official DR value: DR13
Samplerate:        96000 Hz
Channels:          2
Bits per sample:   24
Bitrate:           2464 kbps
Codec:             FLAC
================================================================================
Источник (релизер): https://www.prestomusic.com/classical/products/8618601--american-rapture
Правила, инструкции, FAQ!!!
Торрент  Добавлен [08 июн 2019, 08:56] Скачать торрент Магнет ссылка
Скачать торрент
[ Размер 36.74 КБ / Просмотров 6 ]

Статус
Проверен 
 
Размер  915.59 МБ
Приватный: Нет (DHT включён)
.torrent скачан  1
Как залить торрент? | Как скачать Torrent? | Ошибка в торренте? Качайте магнет  


     Отправить личное сообщение
   
Страница 1 из 1
Показать сообщения за:  Поле сортировки  
Начать новую тему Ответить на тему


Сейчас этот форум просматривают: нет зарегистрированных пользователей и гости: 0


Вы не можете начинать темы
Вы не можете отвечать на сообщения
Вы не можете редактировать свои сообщения
Вы не можете удалять свои сообщения
Вы не можете добавлять вложения

Перейти:  
Ресурс не предоставляет электронные версии произведений, а занимается лишь коллекционированием и каталогизацией ссылок, присылаемых и публикуемых на форуме нашими читателями. Если вы являетесь правообладателем какого-либо представленного материала и не желаете чтобы ссылка на него находилась в нашем каталоге, свяжитесь с нами и мы незамедлительно удалим её. Файлы для обмена на трекере предоставлены пользователями сайта, и администрация не несёт ответственности за их содержание. Просьба не заливать файлы, защищенные авторскими правами, а также файлы нелегального содержания!
cron