Начать новую тему Ответить на тему
Статистика раздачи
Размер: 917.33 МБ | Добавлен: 08 июн 2019, 08:56 | Скачали: 1
Сидеров: 0  [0 байт/сек]    Личеров: 0  [0 байт/сек]
Пред. тема | След. тема 

Автор
Сообщение

СообщениеДобавлено: 08 июн 2019, 08:56 

Ответить с цитатой 

Baltic Chamber Orchestra, Emmanuel Leducq -Barome / Schoenberg - Verklarte Nacht & Honegger - Symphony No. 2
Формат записи/Источник записи: [TR24][OF]
Наличие водяных знаков: Нет
Год издания/переиздания диска: 2019
Жанр: Classical
Издатель (лейбл): Rubicon
Продолжительность: 00:56:31
Наличие сканов в содержимом раздачи: Буклет PDF
Треклист:
01. Schoenberg: Verklärte Nacht, Op. 4 (1899, version for string orchestra 1943) 31:22
Honegger: Symphony No. 2 for string orchestra and trumpet 25:09
02. I. Molto moderato. Allegro 11:04
03. II. Adagio mesto 8:57
04. III. Vivace non troppo 5:08
Baltic Chamber Orchestra
Emmanuel Leducq-Barome
Контейнер: FLAC (*.flac)
Тип рипа: tracks
Разрядность: 24/96
Формат: PCM
Количество каналов: 2.0
Код:
foobar2000 1.4.3 / Dynamic Range Meter 1.1.1
log date: 2019-05-27 17:28:29
--------------------------------------------------------------------------------
Analyzed: Baltic Chamber Orchestra / Schoenberg & Honegger
--------------------------------------------------------------------------------
DR         Peak         RMS     Duration Track
--------------------------------------------------------------------------------
DR13      -0.87 dB   -20.94 dB     31:22 01-Verklärte Nacht, Op. 4 (1899, version for string orchestra 1943)
DR13      -3.80 dB   -22.96 dB     11:04 02-Symphony No. 2 for string orchestra and trumpet: I. Molto moderato. Allegro
DR15      -2.86 dB   -24.16 dB      8:57 03-Symphony No. 2 for string orchestra and trumpet: II. Adagio mesto
DR13      -0.71 dB   -17.49 dB      5:09 04-Symphony No. 2 for string orchestra and trumpet: III. Vivace non troppo
--------------------------------------------------------------------------------
Number of tracks:  4
Official DR value: DR13
Samplerate:        96000 Hz
Channels:          2
Bits per sample:   24
Bitrate:           2533 kbps
Codec:             FLAC
================================================================================
Источник (релизер): https://www.prestomusic.com/classical/products/8609171--schoenberg-verklarte-nach...er-symphony-no-2
Правила, инструкции, FAQ!!!
Торрент  Добавлен [08 июн 2019, 08:56] Скачать торрент Магнет ссылка
Скачать торрент
[ Размер 36.88 КБ / Просмотров 72 ]

Статус
Проверен 
 
Размер  917.33 МБ
Приватный: Нет (DHT включён)
.torrent скачан  1
Как залить торрент? | Как скачать Torrent? | Ошибка в торренте? Качайте магнет  


     Отправить личное сообщение
   
Страница 1 из 1
Показать сообщения за:  Поле сортировки  
Начать новую тему Ответить на тему


Сейчас этот форум просматривают: нет зарегистрированных пользователей и гости: 1


Вы не можете начинать темы
Вы не можете отвечать на сообщения
Вы не можете редактировать свои сообщения
Вы не можете удалять свои сообщения
Вы не можете добавлять вложения

Перейти:  
Ресурс не предоставляет электронные версии произведений, а занимается лишь коллекционированием и каталогизацией ссылок, присылаемых и публикуемых на форуме нашими читателями. Если вы являетесь правообладателем какого-либо представленного материала и не желаете чтобы ссылка на него находилась в нашем каталоге, свяжитесь с нами и мы незамедлительно удалим её. Файлы для обмена на трекере предоставлены пользователями сайта, и администрация не несёт ответственности за их содержание. Просьба не заливать файлы, защищенные авторскими правами, а также файлы нелегального содержания!