Начать новую тему Ответить на тему
Статистика раздачи
Размер: 2.08 ГБ | Добавлен: 08 июн 2019, 08:57 | Скачали: 2
Сидеров: 1  [0 байт/сек]    Личеров: 0  [0 байт/сек]
Пред. тема | След. тема 

Автор
Сообщение

СообщениеДобавлено: 08 июн 2019, 08:57 

Ответить с цитатой 

Mari Samuelsen - Mari


Формат записи/Источник записи: [TR24][OF]
Наличие водяных знаков: Нет
Год издания: 2019
Жанр: Classical
Издатель (лейбл): Deutsche Grammophon
Продолжительность:
Наличие сканов в содержимом раздачи: Буклет PDF
Контейнер: FLAC (*.flac)
Тип рипа: tracks
Разрядность: 24/96
Формат: PCM
Количество каналов: 2.0
Источник (релизер): prestomusic.com
Vladimir Martynov (b. 1946)
1. "Come In!": 2nd mvt
Max Richter (b. 1966)
2. Dona Nobis Pacem 2
Philip Glass (b. 1937)
3. Einstein on the Beach: Knee Play 2
Peteris Vasks (b. 1946)
4. Vientulais Engelis: Meditation for Violin and String Orchestra
Brian Eno (b. 1948), Jon Hopkins (b. 1979), Leo Abrahams (b. 1977)
5. Emerald and Stone (Arr. Knoth)
Max Richter
6. Vocal
Jóhann Jóhannsson (1969 - 2018)
7. Heptapod B (Arr. Knoth)
Johann Sebastian Bach (1685 - 1750)
8. Invention No. 13 in A Minor, BWV 784 (Arr. Badzura)
Philip Glass
9. Violin Concerto, 2nd mvt. (Arr. Gelgotas)
Christian Badzura
10. 847
Johann Sebastian Bach
Partita for Violin Solo No. 2 in D Minor, BWV 1004
11. Chaconne – Pt. 1
12. Chaconne – Pt. 2
13. Chaconne – Pt. 3
14. Prelude in D Major, BWV 850 (Arr. Badzura)
Max Richter
15. Fragment
Peter Gregson (b. 1987)
16. Sequence (Four) for Solo Violin and String Orchestra divisi
Vladimir Martynov
17. The Beatitudes
Brian Eno, Hans Joachim Roedelius (b. 1934), Dieter Moebius (1944 - 2015)
18. By This River (Arr. Badzura)
Johann Sebastian Bach
19. Sonata for Violin Solo No. 1 in G Minor, BWV 1001: 4. Presto
Chris Clark (b. 1960)
20. Mammal Step Sequence
Jóhann Jóhannsson (1969 - 2018)
21. Good Night, Day
Max Richter
22. November
Peter Gregson
23. Lullaby
Mari Samuelsen, violin
Konzerthausorchester Berlin

Jonathan Stockhammer, conductor
Код:
foobar2000 1.4 / Dynamic Range Meter 1.1.1
log date: 2019-06-07 06:43:55
--------------------------------------------------------------------------------
Analyzed: Mari Samuelsen / Mari
--------------------------------------------------------------------------------
DR         Peak         RMS     Duration Track
--------------------------------------------------------------------------------
DR11      -0.32 dB   -14.58 dB      4:31 01-2nd mvt.
DR7       -0.32 dB   -12.69 dB      3:27 02-Richter: Dona Nobis Pacem 2
DR11      -1.75 dB   -15.49 dB      5:09 03-Knee Play 2
DR11      -0.32 dB   -14.89 dB     12:14 04-Vasks: Vientulais Engelis: Meditation for Violin and String Orchestra
DR10      -1.49 dB   -16.07 dB      2:26 05-Eno, Hopkins, Abrahams: Emerald and Stone (Arr. Knoth)
DR11      -2.67 dB   -18.15 dB      8:32 06-Richter: Vocal
DR11      -0.32 dB   -15.81 dB      3:32 07-Jóhannsson: Heptapod B (Arr. Knoth)
DR11      -1.37 dB   -15.80 dB      1:43 08-J.S. Bach: Invention No. 13 in A Minor, BWV 784 (Arr. Badzura)
DR10      -0.32 dB   -13.42 dB      7:57 09-Glass: Violin Concerto, 2nd mvt. (Arr. Gelgotas)
DR9       -0.32 dB   -10.77 dB      4:07 10-Badzura: 847
DR12      -0.32 dB   -16.36 dB      6:40 11-5. Chaconne – Pt. 1
DR11      -0.32 dB   -15.20 dB      3:53 12-5. Chaconne – Pt. 2
DR11      -0.32 dB   -17.16 dB      3:03 13-5. Chaconne – Pt. 3
DR10      -0.32 dB   -13.75 dB      1:41 14-Prelude in D Major, BWV 850 (Arr. Badzura)
DR11      -1.57 dB   -18.17 dB      1:33 15-Richter: Fragment
DR8       -0.32 dB   -11.88 dB      6:10 16-Gregson: Sequence (Four) for Solo Violin and String Orchestra divisi
DR10      -0.80 dB   -16.08 dB      4:46 17-Martynov: The Beatitudes
DR11      -2.46 dB   -17.42 dB      3:36 18-Eno, Roedelius, Moebius: By This River (Arr. Badzura)
DR12      -1.91 dB   -17.48 dB      3:19 19-4. Presto
DR10      -0.32 dB   -13.94 dB      2:19 20-Clark: Mammal Step Sequence
DR11      -0.32 dB   -16.40 dB      3:49 21-Jóhannsson: Good Night, Day
DR6       -0.84 dB   -10.13 dB      6:08 22-Richter: November
DR14      -0.99 dB   -19.64 dB      5:55 23-Gregson: Lullaby
--------------------------------------------------------------------------------
Number of tracks:  23
Official DR value: DR10
Samplerate:        96000 Hz
Channels:          2
Bits per sample:   24
Bitrate:           2800 kbps
Codec:             FLAC
================================================================================
Norwegian violinist Mari Samuelsen’s debut for the Yellow Label is entitled simply MARI and is set for international release on May 31 via Deutsche Grammophon/Universal Music Canada, the country’s leading music company. Recorded with the Konzerthausorchester Berlin and conductor Jonathan Stockhammer, the album explores the contradictions of contemporary life – the fact that, despite the excitement of city life and the convenience of instant communication and express travel, many of us still feel a need to ground ourselves in the peace and quiet of the natural world. Mari herself was born in rural Norway and goes back to the family farm as often as her schedule allows. She was keen, therefore, to choose a selection of music echoing the conflicting pulls on our time and energy.
At the emotional heart of the album is Bach’s Chaconne in D minor, whose serenity Samuelsen has chosen to counter with the nervous agitation of “Knee Play 2” from Philip Glass’s Einstein on the Beach. The rest of the programme of her DG debut grew organically from the seeds of Bach and Glass, tracing themes of change and renewal, from the increasingly complex variations of the Chaconne to the expansive melodic development of Clark’s Mammal Step Sequence. The album also combines familiar repertoire with brand-new pieces from some of today’s leading composers and musicians.
Mari tested different combinations of compositions, carefully considering the ways in which they related to one another and to the whole. The finished recording contains pieces as diverse as Vladimir Martynov’s The Beatitudes, Peter Gregson’s Sequence (Four), arrangements of Jóhann Jóhannsson’s Heptapod B and Brian Eno’s song “By this River”, and Pēteris Vasks’ Vientulais Engelis (“Lonely Angel”). The mix also includes four works by Max Richter, with whom she collaborates on a regular basis, including “Vocal”, for solo violin, and the wonderfully hypnotic “November”.
As MARI reveals, Mari is an artist with a fresh and intelligent vision of the world. She respects the masterpieces of the past but is fearlessly adventurous when it comes to new repertoire and innovative musical partnerships. An advocate of creative communication and attentive listening, she understands that we all yearn for moments of quiet contemplation. “The need to go into a room and just listen to sound – almost like sound therapy – is bigger than ever,” she observes. “People are hungry for it, and I wanted to use my creativity to collaborate and experiment with some of the great people living today. Slowing down, and people leaving their busy lives behind, is only going to become more important, so there will be more room for this type of collaboration, and this type of music, in the years to come.”
Правила, инструкции, FAQ!!!
Торрент  Добавлен [08 июн 2019, 08:57] Скачать торрент Магнет ссылка
Скачать торрент
[ Размер 12.58 КБ / Просмотров 15 ]

Статус
Проверен 
 
Размер  2.08 ГБ
Приватный: Нет (DHT включён)
.torrent скачан  2
Как залить торрент? | Как скачать Torrent? | Ошибка в торренте? Качайте магнет  


     Отправить личное сообщение
   
Страница 1 из 1
Показать сообщения за:  Поле сортировки  
Начать новую тему Ответить на тему


Сейчас этот форум просматривают: нет зарегистрированных пользователей и гости: 0


Вы не можете начинать темы
Вы не можете отвечать на сообщения
Вы не можете редактировать свои сообщения
Вы не можете удалять свои сообщения
Вы не можете добавлять вложения

Перейти:  
Ресурс не предоставляет электронные версии произведений, а занимается лишь коллекционированием и каталогизацией ссылок, присылаемых и публикуемых на форуме нашими читателями. Если вы являетесь правообладателем какого-либо представленного материала и не желаете чтобы ссылка на него находилась в нашем каталоге, свяжитесь с нами и мы незамедлительно удалим её. Файлы для обмена на трекере предоставлены пользователями сайта, и администрация не несёт ответственности за их содержание. Просьба не заливать файлы, защищенные авторскими правами, а также файлы нелегального содержания!
cron