Начать новую тему Ответить на тему
Статистика раздачи
Размер: 258.64 МБ | Добавлен: 12 май 2019, 19:22 | Скачали: 0
Сидеров: 0  [0 байт/сек]    Личеров: 0  [0 байт/сек]
Пред. тема | След. тема 

Автор
Сообщение

СообщениеДобавлено: 12 май 2019, 19:22 

Ответить с цитатой 

Anne LeBaron Quintet (Davey Williams, Gregg Bendian, Frank London) / Phantom Orchestra
Жанр: Avant-Garde Jazz, Experimental
Носитель: CD
Страна-производитель диска (релиза): Germany
Год издания: 1992
Издатель (лейбл): Ear-Rational Records
Номер по каталогу: ECD 1035
Страна исполнителя (группы): USA
Аудиокодек: FLAC (*.flac)
Тип рипа: image+.cue
Продолжительность: 00:50:44
Источник: собственный рип
Наличие сканов в содержимом раздачи: да
Треклист:
1. Bouquet Of A Phantom Orchestra 10:52
2. Human Vapor 3:15
3. Superstrings And Curved Space 14:00
4. Bottom Wash 8:33
5. Top Hat On A Locomotive 10:13
6. Loaded Shark 3:31
Код:
Exact Audio Copy V1.3 from 2. September 2016
Отчёт EAC об извлечении, выполненном 19. апреля 2019, 12:12
Anne LeBaron Quintet / Phantom Orchestra - 1992
Дисковод: PIONEER BD-RW   BDR-TD03   Adapter: 1  ID: 0
Режим чтения                 : Достоверность
Использование точного потока : Да
Отключение кэша аудио        : Да
Использование указателей C2  : Нет
Коррекция смещения при чтении                     : 667
Способность читать области Lead-in и Lead-out     : Нет
Заполнение пропущенных сэмплов тишиной            : Да
Удаление блоков с тишиной в начале и конце        : Нет
При вычислениях CRC использовались нулевые сэмплы : Да
Интерфейс                                         : Встроенный Win32-интерфейс для Win NT/2000
Выходной формат          : Пользовательский кодировщик
Выбранный битрейт        : 128 kBit/s
Качество                 : Высокий
Добавление ID3-тега      : Нет
Утилита сжатия           : C:\Program Files (x86)\Exact Audio Copy\Flac\flac.exe
Дополнительные параметры : -V -8 -T "Date=%year%" -T "Genre=%genre%" %source%
TOC извлечённого CD
     Трек |   Старт  | Длительность | Начальный сектор | Конечный сектор
    ---------------------------------------------------------------------
       1  |  0:00.00 |   10:57.00   |           0      |      49274
       2  | 10:57.00 |    3:20.50   |       49275      |      64324
       3  | 14:17.50 |   14:03.05   |       64325      |     127554
       4  | 28:20.55 |    8:34.73   |      127555      |     166177
       5  | 36:55.53 |   10:16.57   |      166178      |     212434
       6  | 47:12.35 |    3:32.13   |      212435      |     228347
Характеристики диапазона извлечения и сообщения об ошибках
Выбранный диапазон
     Имя файла C:\Users\Ewgen\Pictures\Anne LeBaron Quintet - Phantom Orchestra - 1992\Anne LeBaron Quintet - Phantom Orchestra - 1992.wav
     Пиковый уровень 93.5 %
     Скорость извлечения 4.5 X
     Качество диапазона 100.0 %
     CRC теста 0F682493
     CRC копии 0F682493
     Копирование... OK
Ошибок не произошло
AccurateRip: сводка
Трек  1  : извлечено точно (доверие 2)  [35671EC5]  (AR v1)
Трек  2  : извлечено точно (доверие 2)  [933F7CF8]  (AR v1)
Трек  3  : извлечено точно (доверие 2)  [6FC236EA]  (AR v1)
Трек  4  : извлечено точно (доверие 2)  [0F1045FA]  (AR v1)
Трек  5  : извлечено точно (доверие 2)  [C4D93F6D]  (AR v1)
Трек  6  : извлечено точно (доверие 2)  [2A39D595]  (AR v1)
Все треки извлечены точно
Конец отчёта
---- CUETools DB Plugin V2.1.6
[CTDB TOCID: cuJd6f5cZqaRZ1ec_uajBA9V.sU-] found
Submit result: cuJd6f5cZqaRZ1ec_uajBA9V.sU- has been confirmed
Track | CTDB Status
  1   | (3/3) Accurately ripped
  2   | (3/3) Accurately ripped
  3   | (3/3) Accurately ripped
  4   | (3/3) Accurately ripped
  5   | (3/3) Accurately ripped
  6   | (3/3) Accurately ripped
==== Контрольная сумма отчёта E0AFA63CD9B84323C1DAEC2C6996841CE516421157BF6374BE3060F0BD4BEC5B ====
Drums, Vibraphone, Percussion – Gregg Bendian
Guitar – Davey Williams
Harp, Electronics [Live] – Anne LeBaron
Trumpet, Cornet, Instruments [Small Instruments] – Frank London
Tuba – Marcus Rojas
Raoul Bjorkenheim - Krakatau - Alive https://rutracker.org/forum/viewtopic.php?t=5718108
Raoul Bjorkenheim & Krakatau ‎ - Ritual https://rutracker.org/forum/viewtopic.php?t=5718101
Raoul Bjorkenheim - Apocalypso https://rutracker.org/forum/viewtopic.php?t=2183828
Nicky Skopelitis & Raoul Bjorkenheim ( Douglas Music ADC12) - Revelator https://rutracker.org/forum/viewtopic.php?t=5719973
Sonny Sharrock ( Lance Carter ) - Space Ghost: Coast To Coast https://rutracker.org/forum/viewtopic.php?t=5719970
Myles Boisen - Guitarspeak https://rutracker.org/forum/viewtopic.php?t=5723367
The Code ( Steve Horowitz, Henry Kaiser, Ralph Carney ) - The Psychosexual Album https://rutracker.org/forum/viewtopic.php?t=5723350
Niu Abdominaux Dangereux ( Sharrock, Kaiser, Frith, Sharp ) - Ghosts https://rutracker.org/forum/viewtopic.php?t=5723346
Henry Kaiser & Charles K. Noyes & Weasel Walter - Ninja Star Danger Rock https://rutracker.org/forum/viewtopic.php?t=5723333
Henry Kaiser - Those Who Know History Are Doomed To Repeat It https://rutracker.org/forum/viewtopic.php?t=5723330
Henry Kaiser - Re-Marrying for Money https://rutracker.org/forum/viewtopic.php?t=5723318
Правила, инструкции, FAQ!!!
Торрент  Добавлен [12 май 2019, 19:22] Скачать торрент Магнет ссылка
Скачать торрент
[ Размер 10.99 КБ / Просмотров 3 ]

Статус
Проверен 
 
Размер  258.64 МБ
Приватный: Нет (DHT включён)
.torrent скачан  0
Как залить торрент? | Как скачать Torrent? | Ошибка в торренте? Качайте магнет  


     Отправить личное сообщение
   
Страница 1 из 1
Показать сообщения за:  Поле сортировки  
Начать новую тему Ответить на тему


Сейчас этот форум просматривают: нет зарегистрированных пользователей и гости: 0


Вы не можете начинать темы
Вы не можете отвечать на сообщения
Вы не можете редактировать свои сообщения
Вы не можете удалять свои сообщения
Вы не можете добавлять вложения

Перейти:  
Ресурс не предоставляет электронные версии произведений, а занимается лишь коллекционированием и каталогизацией ссылок, присылаемых и публикуемых на форуме нашими читателями. Если вы являетесь правообладателем какого-либо представленного материала и не желаете чтобы ссылка на него находилась в нашем каталоге, свяжитесь с нами и мы незамедлительно удалим её. Файлы для обмена на трекере предоставлены пользователями сайта, и администрация не несёт ответственности за их содержание. Просьба не заливать файлы, защищенные авторскими правами, а также файлы нелегального содержания!