Начать новую тему Ответить на тему
Статистика раздачи
Размер: 470.13 МБ | Добавлен: 10 сен 2019, 23:24 | Скачали: 0
Сидеров: 1  [0 байт/сек]    Личеров: 0  [0 байт/сек]
Пред. тема | След. тема 

Автор
Сообщение

СообщениеДобавлено: 10 сен 2019, 23:24 

Ответить с цитатой 

Atreyu - Long Live (видеоклип)
Жанр: Metalcore, Alternative metal
Продолжительность: 3м 44с
Год выпуска: 2015
Качество: WebDLRip
Разрешение видео/развертка: 1080p
Контейнер: MKV
Видео кодек: H.264
Аудио кодек: PCM
Видео: AVC, 1920 x 1080 (16:9), 23.976 к/с, 16000 Кбит/с
Аудио: PCM, 1536 Кбит/с, 48 К/гц, Стерео
Код:
Общее
Уникальный идентификатор                 : 324030622964386372560567713729060527206 (0xF3C60728D0F4469F09ED07608003DC66)
Полное имя                               : Atreyu - 2015 - Long Live.mkv
Формат                                   : Matroska
Версия формата                           : Version 4
Размер файла                             : 470 Мбайт
Продолжительность                        : 3 м. 44 с.
Общий поток                              : 17,5 Мбит/сек
Дата кодирования                         : UTC 2019-08-31 09:11:15
Программа кодирования                    : mkvmerge v36.0.0 ('Is That Jazz?') 64-bit
Библиотека кодирования                   : libebml v1.3.9 + libmatroska v1.5.2
Видео
Идентификатор                            : 1
Формат                                   : AVC
Формат/Информация                        : Advanced Video Codec
Профиль формата                          : High 4:2:2@L5.1
Настройки формата                        : CABAC / 16 Ref Frames
Параметр CABAC формата                   : Да
Параметр RefFrames формата               : 16 кадров
Идентификатор кодека                     : V_MPEG4/ISO/AVC
Продолжительность                        : 3 м. 44 с.
Битрейт                                  : 16,0 Мбит/сек
Ширина                                   : 1920 пикселей
Высота                                   : 1080 пикселей
Соотношение сторон                       : 16:9
Режим частоты кадров                     : Постоянный
Частота кадров                           : 23,976 (24000/1001) кадра/сек
Цветовое пространство                    : YUV
Субдискретизация насыщенности            : 4:2:2
Битовая глубина                          : 10 бит
Тип развёртки                            : Прогрессивная
Бит/(Пиксели*Кадры)                      : 0.322
Размер потока                            : 429 Мбайт (91%)
Библиотека кодирования                   : x264 core 157 r2969 d4099dd
Настройки программы                      : cabac=1 / ref=16 / deblock=1:-3:-3 / analyse=0x3:0x133 / me=tesa / subme=11 / psy=1 / psy_rd=1.00:0.00 / mixed_ref=1 / me_range=48 / chroma_me=1 / trellis=2 / 8x8dct=1 / cqm=0 / deadzone=21,11 / fast_pskip=0 / chroma_qp_offset=-2 / threads=5 / lookahead_threads=1 / sliced_threads=0 / nr=0 / decimate=1 / interlaced=0 / bluray_compat=0 / constrained_intra=0 / bframes=10 / b_pyramid=2 / b_adapt=2 / b_bias=0 / direct=3 / weightb=1 / open_gop=0 / weightp=2 / keyint=240 / keyint_min=24 / scenecut=40 / intra_refresh=0 / rc_lookahead=60 / rc=2pass / mbtree=1 / bitrate=16000 / ratetol=1.0 / qcomp=0.60 / qpmin=0 / qpmax=81 / qpstep=4 / cplxblur=20.0 / qblur=0.5 / ip_ratio=1.40 / aq=1:1.00
Язык                                     : English
Default                                  : Да
Forced                                   : Нет
Цветовой диапазон                        : Limited
Основные цвета                           : BT.709
Характеристики трансфера                 : BT.709
Коэффициенты матрицы                     : BT.709
Аудио
Идентификатор                            : 2
Формат                                   : PCM
Настройки формата                        : Little / Signed
Идентификатор кодека                     : A_PCM/INT/LIT
Продолжительность                        : 3 м. 44 с.
Вид битрейта                             : Постоянный
Битрейт                                  : 1536 Кбит/сек
Каналы                                   : 2 канала
Частота                                  : 48,0 КГц
Частота кадров                           : 32,001 кадра/сек (1500 SPF)
Битовая глубина                          : 16 бит
Размер потока                            : 41,2 Мбайт (9%)
Default                                  : Да
Forced                                   : Нет
Правила, инструкции, FAQ!!!
Торрент  Добавлен [10 сен 2019, 23:24] Скачать торрент Магнет ссылка
Скачать торрент
[ Размер 18.82 КБ / Просмотров 6 ]

Статус
Проверен 
 
Размер  470.13 МБ
Приватный: Нет (DHT включён)
.torrent скачан  0
Как залить торрент? | Как скачать Torrent? | Ошибка в торренте? Качайте магнет  


     Отправить личное сообщение
   
Страница 1 из 1
Показать сообщения за:  Поле сортировки  
Начать новую тему Ответить на тему


Сейчас этот форум просматривают: нет зарегистрированных пользователей и гости: 1


Вы не можете начинать темы
Вы не можете отвечать на сообщения
Вы не можете редактировать свои сообщения
Вы не можете удалять свои сообщения
Вы не можете добавлять вложения

Перейти:  
Ресурс не предоставляет электронные версии произведений, а занимается лишь коллекционированием и каталогизацией ссылок, присылаемых и публикуемых на форуме нашими читателями. Если вы являетесь правообладателем какого-либо представленного материала и не желаете чтобы ссылка на него находилась в нашем каталоге, свяжитесь с нами и мы незамедлительно удалим её. Файлы для обмена на трекере предоставлены пользователями сайта, и администрация не несёт ответственности за их содержание. Просьба не заливать файлы, защищенные авторскими правами, а также файлы нелегального содержания!