Начать новую тему Ответить на тему
Статистика раздачи
Размер: 1.98 ГБ | Добавлен: 27 июн 2014, 08:07 | Скачали: 4
Сидеров: 4  [0 байт/сек]    Личеров: 4  [533.78 КБ/сек]
Пред. тема | След. тема 

Автор
Сообщение

СообщениеДобавлено: 27 июн 2014, 08:07 

Ответить с цитатой 

Amatory - Дискография (2003-2010)

Год: 2003-2010
Жанр: Alternative Rock / Nu-Metal
Продолжительность: 04:00:32

Кодек: FLAC (image+.cue)
Битрейт: Lossless
Наличие сканов: Yes
Синхронизированные тексты в формате .lrc: Yes (Не все)
#777Продолжительность: 00:36:40
Восковый Дождь
Страница Шесть
Мимикрия
Молочный Коктейль
Осколки
Две Жизни
Вечно Прячется Судьба
59
Не Отсюда
Клетка
Код:
Код:
EAC extraction logfile from 5. January 2008, 18:53 for CD
Amatory / Вечно Прячется Судьба

Used drive  : _NEC    DVD_RW ND-4550A   Adapter: 1  ID: 0
Read mode   : Secure with NO C2, accurate stream, disable cache
Read offset correction : 48
Overread into Lead-In and Lead-Out : No

Used output format : Internal WAV Routines
                     44.100 Hz; 16 Bit; Stereo

Other options      :
    Fill up missing offset samples with silence : Yes
    Delete leading and trailing silent blocks : No
    Native Win32 interface for Win NT & 2000

Range status and errors
Selected range
     Filename E:\lossless\Amatory - Вечно Прячется Судьба\Amatory - Вечно Прячется Судьба.wav

     Peak level 97.7 %
     Range quality 100.0 %
     CRC E183946E
     Copy OK

No errors occured

End of status report
Код:
Код:
REM GENRE Alternative Rock / Nu Metal
REM DATE 2003
REM DISCID 8308980A
REM COMMENT ExactAudioCopy v0.95b4
PERFORMER "Amatory"
REM DISCNUMBER 1
REM TOTALDISCS 5
TITLE "Вечно Прячется Судьба"
FILE "Amatory - Вечно Прячется Судьба.flac" WAVE
  TRACK 01 AUDIO
    TITLE "Восковый Дождь"
    FLAGS DCP
    INDEX 01 00:00:00
  TRACK 02 AUDIO
    TITLE "Страница Шесть"
    FLAGS DCP
    INDEX 01 02:21:15
  TRACK 03 AUDIO
    TITLE "Мимикрия"
    FLAGS DCP
    INDEX 01 06:25:26
  TRACK 04 AUDIO
    TITLE "Молочный Коктейль"
    FLAGS DCP
    INDEX 01 10:45:67
  TRACK 05 AUDIO
    TITLE "Осколки"
    FLAGS DCP
    INDEX 01 14:31:32
  TRACK 06 AUDIO
    TITLE "Две Жизни"
    FLAGS DCP
    INDEX 01 17:50:23
  TRACK 07 AUDIO
    TITLE "Вечно Прячется Судьба"
    FLAGS DCP
    INDEX 01 22:19:09
  TRACK 08 AUDIO
    TITLE "59"
    FLAGS DCP
    INDEX 01 26:03:37
  TRACK 09 AUDIO
    TITLE "Не Отсюда"
    FLAGS DCP
    INDEX 01 29:30:57
  TRACK 10 AUDIO
    TITLE "Клетка"
    FLAGS DCP
    INDEX 01 32:28:06
Код:
Код:
-----------------------

DON'T MODIFY THIS FILE

-----------------------

PERFORMER: auCDtect Task Manager, ver. 1.5.1RC4 build 1.5.1.5
Copyright (c) 2008-2010 y-soft. All rights reserved
http:/y-soft.org

ANALYZER: auCDtect: CD records authenticity detector, version 0.8.2
Copyright (c) 2004 Oleg Berngardt. All rights reserved.
Copyright (c) 2004 Alexander Djourik. All rights reserved.

FILE: Amatory - Вечно Прячется Судьба.flac
  Size: 284900620 Hash: 28EB74A310E5D6DCB952A52D9840FCAF Accuracy: -m0
  Conclusion: CDDA 100%
  Signature: B9B1A44AB34A41A71A5736FA3646185C94C80344
Код:
Код:
[CUETools log; Date: 2012-10-03 15:34:25; Version: 2.1.2a]
[AccurateRip ID: 000da8d1-006e3593-8308980a] found.
Track   [ CRC    ] Status
 01     [025e3a04] (3/3) Accurately ripped
 02     [4a03f6e1] (4/4) Accurately ripped
 03     [95514caa] (4/4) Accurately ripped
 04     [30db0e4a] (4/4) Accurately ripped
 05     [3f74a4d9] (4/4) Accurately ripped
 06     [acb64012] (4/4) Accurately ripped
 07     [26ec5b20] (4/4) Accurately ripped
 08     [a7378d67] (4/4) Accurately ripped
 09     [9bbae277] (4/4) Accurately ripped
 10     [75796f4b] (4/4) Accurately ripped

Track Peak [ CRC32  ] [W/O NULL]
 --   97,7 [E183946E] [4755255E]
 01   97,7 [5E5A1102] [1DF3E597]
 02   97,7 [30941A17] [C2C8F387]
 03   97,7 [12FE5112] [F3F696FD]
 04   97,7 [E51C4A94] [4A2F1824]
 05   97,7 [17891012] [23578040]
 06   97,7 [FCFA5A86] [DB5603E4]
 07   97,7 [F4D7AC5F] [FEA0F144]
 08   97,7 [C56742FE] [B7D67BE8]
 09   97,7 [03A28817] [0B647E18]
 10   97,7 [1376C786] [683F1BE1]
#777Продолжительность: 00:52:51
Километры
Сотни Раз
Беги Вслед За Мной
Черно-белые Дни
Сильнее Меня
Я Остаюсь
Сломанный Мир
Глубоко Внутри
Поцелуй Мою Кровь
С.Т.Е.К.А.Я.
Другая Жизнь
P.S.
Когда Я Забуду
Код:
Код:
Exact Audio Copy V0.99 prebeta 4 from 23. January 2008

Отчёт EAC об извлечении, выполненном 29. апреля 2009, 16:48

Amatory / Неизбежность

Дисковод: Optiarc DVD RW AD-7170A   Adapter: 0  ID: 0

Режим чтения                 : Достоверность
Использование точного потока : Да
Отключение кэша аудио        : Да
Использование указателей C2  : Нет

Коррекция смещения при чтении                     : 48
Способность читать области Lead-in и Lead-out     : Нет
Заполнение пропущенных сэмплов тишиной            : Да
Удаление блоков с тишиной в начале и конце        : Нет
При вычислениях CRC использовались нулевые сэмплы : Да
Интерфейс                                         : Установленный внешний ASPI-интерфейс

Выходной формат : Внутренние WAV-операции
Формат сэмплов  : 44.100 Гц; 16 бит; стерео

TOC извлечённого CD

     Трек |   Старт  | Длительность | Начальный сектор | Конечный сектор
    ---------------------------------------------------------------------
       1  |  0:00.00 |    4:16.27   |           0      |      19226
       2  |  4:16.27 |    4:18.28   |       19227      |      38604
       3  |  8:34.55 |    3:05.53   |       38605      |      52532
       4  | 11:40.33 |    4:19.24   |       52533      |      71981
       5  | 15:59.57 |    3:16.21   |       71982      |      86702
       6  | 19:16.03 |    3:12.30   |       86703      |     101132
       7  | 22:28.33 |    4:04.73   |      101133      |     119505
       8  | 26:33.31 |    3:17.59   |      119506      |     134339
       9  | 29:51.15 |    2:53.72   |      134340      |     147386
      10  | 32:45.12 |    2:50.68   |      147387      |     160204
      11  | 35:36.05 |    4:20.52   |      160205      |     179756
      12  | 39:56.57 |    4:59.06   |      179757      |     202187
      13  | 44:55.63 |    7:55.22   |      202188      |     237834

Характеристики диапазона извлечения и сообщения об ошибках

Выбранный диапазон

     Имя файла C:\Downloads\Музыка (lossless)\[2005] Неизбежность (lossless)\Amatory - Неизбежность.wav

     Пиковый уровень 100.0 %
     Качество диапазона 99.9 %
     CRC копии 63DA229E
     Копирование... OK

Ошибок не произошло

Конец отчёта
Код:
Код:
REM GENRE Alternative Rock
REM DATE 2005
REM DISCID C90C630D
REM COMMENT ExactAudioCopy v0.99pb4
PERFORMER "Amatory"
REM DISCNUMBER 2
REM TOTALDISCS 5
TITLE "Неизбежность"
FILE "Amatory - Неизбежность.flac" WAVE
  TRACK 01 AUDIO
    TITLE "Километры"
    FLAGS DCP
    INDEX 01 00:00:00
  TRACK 02 AUDIO
    TITLE "Сотни Раз"
    FLAGS DCP
    INDEX 01 04:16:27
  TRACK 03 AUDIO
    TITLE "Беги Вслед За Мной"
    FLAGS DCP
    INDEX 01 08:34:55
  TRACK 04 AUDIO
    TITLE "Черно-белые Дни"
    FLAGS DCP
    INDEX 01 11:40:33
  TRACK 05 AUDIO
    TITLE "Сильнее Меня"
    FLAGS DCP
    INDEX 01 15:59:57
  TRACK 06 AUDIO
    TITLE "Я Остаюсь"
    FLAGS DCP
    INDEX 01 19:16:03
  TRACK 07 AUDIO
    TITLE "Сломанный Мир"
    FLAGS DCP
    INDEX 01 22:28:33
  TRACK 08 AUDIO
    TITLE "Глубоко Внутри"
    FLAGS DCP
    INDEX 01 26:33:31
  TRACK 09 AUDIO
    TITLE "Поцелуй Мою Кровь"
    FLAGS DCP
    INDEX 01 29:51:15
  TRACK 10 AUDIO
    TITLE "С.Т.Е.К.А.Я."
    FLAGS DCP
    INDEX 01 32:45:12
  TRACK 11 AUDIO
    TITLE "Другая Жизнь"
    FLAGS DCP
    INDEX 01 35:36:05
  TRACK 12 AUDIO
    TITLE "P.S."
    FLAGS DCP
    INDEX 01 39:56:57
  TRACK 13 AUDIO
    TITLE "Когда Я Забуду"
    FLAGS DCP
    INDEX 01 44:55:63
Код:
Код:
-----------------------

DON'T MODIFY THIS FILE

-----------------------

PERFORMER: auCDtect Task Manager, ver. 1.5.1RC4 build 1.5.1.5
Copyright (c) 2008-2010 y-soft. All rights reserved
http:/y-soft.org

ANALYZER: auCDtect: CD records authenticity detector, version 0.8.2
Copyright (c) 2004 Oleg Berngardt. All rights reserved.
Copyright (c) 2004 Alexander Djourik. All rights reserved.

FILE: Amatory - Неизбежность.flac
  Size: 425195268 Hash: 2F500EEAF60BC895433171A6808046C5 Accuracy: -m0
  Conclusion: CDDA 100%
  Signature: 796FC9C4962FA163844033412E0AD87F02F71618
Код:
Код:
[CUETools log; Date: 2012-10-03 15:45:17; Version: 2.1.2a]
[AccurateRip ID: 0017ac29-00ec0970-c90c630d] found.
Track   [ CRC    ] Status
 01     [908dd0ad] (0/0) No match but offset
 02     [393ea618] (0/0) No match but offset
 03     [1d252105] (2/2) Accurately ripped
 04     [eb8ea1e8] (2/2) Accurately ripped
 05     [0ebda211] (2/2) Accurately ripped
 06     [af2bd89f] (2/2) Accurately ripped
 07     [343143b5] (2/2) Accurately ripped
 08     [e353e910] (2/2) Accurately ripped
 09     [46603367] (2/2) Accurately ripped
 10     [a7961352] (2/2) Accurately ripped
 11     [f491c1a5] (2/2) Accurately ripped
 12     [c77835a7] (2/2) Accurately ripped
 13     [db730241] (2/2) Accurately ripped

Track Peak [ CRC32  ] [W/O NULL] [  LOG   ]
 --  100,0 [63DA229E] [F1922EB3]   CRC32
 01  100,0 [AF36D799] [BAB4E8CA]
 02  100,0 [AC665327] [204D41C4]
 03   99,9 [D6DFF178] [3579B0C2]
 04  100,0 [5FFC30FE] [10971A95]
 05  100,0 [B926C90A] [1F1177E7]
 06   99,9 [B9C4956C] [773DE585]
 07  100,0 [8C1E4A4F] [D7C276CF]
 08   99,9 [0EEDBCC8] [3A91C4D7]
 09   99,9 [3A7BFFC2] [72D4477C]
 10   99,9 [F43E2A2E] [D3CC2948]
 11   99,9 [7EF59412] [088F85CF]
 12  100,0 [0379F2CA] [B7721D6A]
 13  100,0 [A43D340E] [39848107]
#777Продолжительность: 00:45:53
Помнишь?
Семь Шагов
Здесь И Сейчас
Снег В Аду
Меня Больше Нет
Обернуться Назад
Отдай Свой Крик
Преступление Против Времени
Слишком Поздно...
Моя Правда
Эффект Бабочки
Теряешь Меня
Код:
Код:
Отчёт EAC об извлечении, выполненном 29. ноября 2006, 1:47 для диска:
Amatory / Книга Мертвых

Дисковод: TEAC    DV-W516E   Adapter: 0  ID: 0
Режим чтения: Достоверный (C2: нет, Точный поток: да, Отключение кэша: нет)
Комбинированное смещение чтения/записи: 0
Способность читать области Lead-in и Lead-out : Нет

Выходной формат: C:\Program Files\Monkey's Audio\MAC.exe   (Monkey's Audio (без потерь))
                     High Lossless Compression
                     Дополнительные параметры: %d -t "Artist=%a" -t "Title=%t" -t "Album=%g" -t "Year=%y" -t "Track=%n" -t "Genre=%m" "C:\Program Files\Monkey's Audio\mac.exe" %s %d -c4000

Другие параметры:
    Заполнение пропущенных сэмплов тишиной : Да
    Удаление блоков с тишиной в начале и конце : Нет
    Установленный внешний ASPI-интерфейс

Характеристики диапазона извлечения и сообщения об ошибках
Выбранный диапазон
     Имя файла E:\MUSIC\Amatory - Книга Мертвых.wav

     Пиковый уровень 99.8 %
     Качество диапазона 100.0 %
     CRC 8F13471D
     Копирование... OK

Ошибок не произошло

Конец отчёта
Код:
Код:
REM GENRE Alternative Rock
REM DATE 2006
REM DISCID AD0AC10C
REM COMMENT ExactAudioCopy v0.95b4
PERFORMER "Amatory"
REM DISCNUMBER 3
REM TOTALDISCS 5
TITLE "Книга Мертвых"
FILE "Amatory - Книга Мертвых.flac" WAVE
  TRACK 01 AUDIO
    TITLE "Помнишь?"
    PERFORMER "Amatory"
    INDEX 01 00:00:00
  TRACK 02 AUDIO
    TITLE "Семь Шагов"
    PERFORMER "Amatory"
    INDEX 00 01:22:51
    INDEX 01 01:22:53
  TRACK 03 AUDIO
    TITLE "Здесь И Сейчас"
    PERFORMER "Amatory"
    INDEX 01 04:52:62
  TRACK 04 AUDIO
    TITLE "Снег В Аду"
    PERFORMER "Amatory"
    INDEX 00 09:12:29
    INDEX 01 09:13:32
  TRACK 05 AUDIO
    TITLE "Меня Больше Нет"
    PERFORMER "Amatory"
    INDEX 00 12:38:50
    INDEX 01 12:38:52
  TRACK 06 AUDIO
    TITLE "Обернуться Назад"
    PERFORMER "Amatory"
    INDEX 00 16:18:49
    INDEX 01 16:19:31
  TRACK 07 AUDIO
    TITLE "Отдай Свой Крик"
    PERFORMER "Amatory"
    INDEX 01 20:53:51
  TRACK 08 AUDIO
    TITLE "Преступление Против Времени"
    PERFORMER "Amatory"
    INDEX 01 23:56:38
  TRACK 09 AUDIO
    TITLE "Слишком Поздно..."
    PERFORMER "Amatory"
    INDEX 00 28:43:32
    INDEX 01 28:44:15
  TRACK 10 AUDIO
    TITLE "Моя Правда"
    PERFORMER "Amatory"
    INDEX 00 32:51:18
    INDEX 01 32:52:73
  TRACK 11 AUDIO
    TITLE "Эффект Бабочки"
    PERFORMER "Amatory"
    INDEX 01 37:12:68
  TRACK 12 AUDIO
    TITLE "Теряешь Меня"
    PERFORMER "Amatory"
    INDEX 00 41:23:03
    INDEX 01 41:25:03
Код:
Код:
-----------------------

DON'T MODIFY THIS FILE

-----------------------

PERFORMER: auCDtect Task Manager, ver. 1.5.1RC4 build 1.5.1.5
Copyright (c) 2008-2010 y-soft. All rights reserved
http:/y-soft.org

ANALYZER: auCDtect: CD records authenticity detector, version 0.8.2
Copyright (c) 2004 Oleg Berngardt. All rights reserved.
Copyright (c) 2004 Alexander Djourik. All rights reserved.

FILE: Amatory - Книга Мертвых.flac
  Size: 357461019 Hash: E7CBD7E72EB40BFDCCBD87DFAF188C62 Accuracy: -m0
  Conclusion: CDDA 100%
  Signature: 1941C428993C10524C60041D63C4115D18D8742C
Код:
Код:
[CUETools log; Date: 2012-10-03 15:53:28; Version: 2.1.2a]
[AccurateRip ID: 0012e9a5-00b587ff-ad0ac10c] found.
Track   [ CRC    ] Status
 01     [b1027a29] (0/6) No match
 02     [e85e0840] (0/6) No match
 03     [e9f41360] (0/6) No match
 04     [b8a18a04] (0/6) No match
 05     [a0cbb35a] (0/6) No match
 06     [9b3a16b4] (0/6) No match
 07     [92c055fd] (0/6) No match
 08     [efac6460] (0/6) No match
 09     [f2a08170] (0/6) No match
 10     [634dd465] (0/6) No match
 11     [20589ca2] (0/6) No match
 12     [161bd290] (0/6) No match
Offsetted by 102:
 01     [c82ddaf6] (6/6) Accurately ripped
 02     [ceb65393] (6/6) Accurately ripped
 03     [c3317c7a] (6/6) Accurately ripped
 04     [8b4690f9] (6/6) Accurately ripped
 05     [a289b52f] (6/6) Accurately ripped
 06     [559bc616] (6/6) Accurately ripped
 07     [1fcf1525] (6/6) Accurately ripped
 08     [f8e14fee] (6/6) Accurately ripped
 09     [9e23b5ea] (6/6) Accurately ripped
 10     [c83221cf] (6/6) Accurately ripped
 11     [dbf5bda6] (6/6) Accurately ripped
 12     [3f51b961] (6/6) Accurately ripped

Track Peak [ CRC32  ] [W/O NULL]
 --   99,8 [8F13471D] [F666934E]
 01   98,7 [F3F73B96] [59BD243F]
 02   99,8 [677D24B1] [D7DC1AAD]
 03   99,8 [F21B3CA4] [D0DC6B25]
 04   99,8 [CBBA3954] [BC8C7CE3]
 05   99,8 [0015B69B] [0A242D72]
 06   99,8 [C4D1D4C9] [DFA809E2]
 07   99,8 [6ACF098F] [8B2E7683]
 08   99,8 [A9662569] [320952D4]
 09   99,8 [70E7E530] [D10741B2]
 10   99,8 [0C7D673C] [A3F171ED]
 11   99,8 [1A4E83C0] [7CAB546F]
 12   99,8 [409B6717] [9369E986]
#777Продолжительность: 01:00:56
Пыль. Свет. Тишина
В Глазах Твоя Жизнь
Спарта
Дыши Со Мной
Моя Месть
Сжигая Мосты
Вы Все Лишены Своей Жизни
Новый Герой
Прямо Сейчас (В Наших Руках)
Зачем Мечтать
Нас Никто Не Остановит
Падая Вниз
Время Придумало Смерть
Нить Длиною в Жизнь
Код:
Код:
Exact Audio Copy V0.99 prebeta 4 from 23. January 2008

Отчёт EAC об извлечении, выполненном 21. декабря 2008, 17:21

Amatory / VII

Дисковод: Optiarc DVD RW AD-7170A   Adapter: 0  ID: 0

Режим чтения                 : Достоверность
Использование точного потока : Да
Отключение кэша аудио        : Да
Использование указателей C2  : Нет

Коррекция смещения при чтении                     : 48
Способность читать области Lead-in и Lead-out     : Нет
Заполнение пропущенных сэмплов тишиной            : Да
Удаление блоков с тишиной в начале и конце        : Нет
При вычислениях CRC использовались нулевые сэмплы : Да
Интерфейс                                         : Встроенный Win32-интерфейс для Win NT/2000

Выходной формат : Внутренние WAV-операции
Формат сэмплов  : 44.100 Гц; 16 бит; стерео

TOC извлечённого CD

     Трек |   Старт  | Длительность | Начальный сектор | Конечный сектор
    ---------------------------------------------------------------------
       1  |  0:00.00 |    1:43.27   |           0      |       7751
       2  |  1:43.27 |    4:20.72   |        7752      |      27323
       3  |  6:04.24 |    4:35.31   |       27324      |      47979
       4  | 10:39.55 |    3:13.08   |       47980      |      62462
       5  | 13:52.63 |    4:12.19   |       62463      |      81381
       6  | 18:05.07 |    5:06.21   |       81382      |     104352
       7  | 23:11.28 |    3:43.65   |      104353      |     121142
       8  | 26:55.18 |    3:51.03   |      121143      |     138470
       9  | 30:46.21 |    3:43.10   |      138471      |     155205
      10  | 34:29.31 |    4:15.74   |      155206      |     174404
      11  | 38:45.30 |    4:14.02   |      174405      |     193456
      12  | 42:59.32 |    5:08.41   |      193457      |     216597
      13  | 48:07.73 |    4:31.51   |      216598      |     236973
      14  | 52:39.49 |    8:16.36   |      236974      |     274209

Характеристики диапазона извлечения и сообщения об ошибках

Выбранный диапазон

     Имя файла C:\Downloads\[2008] VII (lossless)\Amatory - VII.wav

     Пиковый уровень 98.8 %
     Качество диапазона 99.9 %
     CRC копии 2747647E
     Копирование... OK

Ошибок не произошло

Конец отчёта
Код:
Код:
REM GENRE Alternative Rock / Nu Metal
REM DATE 2008
REM DISCID C30E480E
REM COMMENT ExactAudioCopy v0.99pb4
PERFORMER "Amatory"
TITLE "VII"
FILE "Amatory - VII.flac" WAVE
  TRACK 01 AUDIO
    TITLE "Пыль. Свет. Тишина"
    INDEX 01 00:00:00
  TRACK 02 AUDIO
    TITLE "В Глазах Твоя Жизнь"
    INDEX 01 01:43:27
  TRACK 03 AUDIO
    TITLE "Спарта"
    INDEX 01 06:04:24
  TRACK 04 AUDIO
    TITLE "Дыши Со Мной"
    INDEX 01 10:39:55
  TRACK 05 AUDIO
    TITLE "Моя Месть"
    INDEX 01 13:52:63
  TRACK 06 AUDIO
    TITLE "Сжигая Мосты"
    INDEX 00 18:03:42
    INDEX 01 18:05:07
  TRACK 07 AUDIO
    TITLE "Вы Все Лишены Своей Жизни"
    INDEX 01 23:11:28
  TRACK 08 AUDIO
    TITLE "Новый Герой"
    INDEX 01 26:55:18
  TRACK 09 AUDIO
    TITLE "Прямо Сейчас (В Наших Руках)"
    INDEX 01 30:46:21
  TRACK 10 AUDIO
    TITLE "Зачем Мечтать"
    INDEX 01 34:29:31
  TRACK 11 AUDIO
    TITLE "Нас Никто Не Остановит"
    INDEX 01 38:45:30
  TRACK 12 AUDIO
    TITLE "Падая Вниз"
    INDEX 00 42:58:45
    INDEX 01 42:59:32
  TRACK 13 AUDIO
    TITLE "Время Придумало Смерть"
    INDEX 01 48:07:73
  TRACK 14 AUDIO
    TITLE "Нить Длиною в Жизнь"
    INDEX 01 52:39:49
Код:
Код:
-----------------------

DON'T MODIFY THIS FILE

-----------------------

PERFORMER: auCDtect Task Manager, ver. 1.5.1RC4 build 1.5.1.5
Copyright (c) 2008-2010 y-soft. All rights reserved
http:/y-soft.org

ANALYZER: auCDtect: CD records authenticity detector, version 0.8.2
Copyright (c) 2004 Oleg Berngardt. All rights reserved.
Copyright (c) 2004 Alexander Djourik. All rights reserved.

FILE: Amatory - VII.flac
  Size: 476045522 Hash: 7BDFDEC9440FC301A0A10FAE07241E48 Accuracy: -m0
  Conclusion: CDDA 100%
  Signature: D31C93446CAA2EA37C8A6BD42B465D0A0FC8935E
Код:
Код:
[CUETools log; Date: 2012-10-03 23:16:22; Version: 2.1.2a]
[AccurateRip ID: 001c1a36-01324fb1-c30e480e] disk not present in database.

Track Peak [ CRC32  ] [W/O NULL] [  LOG   ]
 --   98,8 [2747647E] [83691E2F]   CRC32
 01   98,7 [95BE74AE] [7EE39592]
 02   98,8 [00F66F9D] [159A36D3]
 03   98,8 [78E83DF7] [E40761F1]
 04   98,8 [FB68E26E] [60533B75]
 05   98,8 [1CCD6FC1] [7F946718]
 06   98,8 [6A28BB85] [F7CD3654]
 07   98,8 [1AD0E984] [03627B1D]
 08   98,8 [7E8AA799] [5E3A0673]
 09   98,8 [18148176] [1EE08476]
 10   98,8 [411D1001] [8E2B867C]
 11   98,8 [3D2E7C26] [0F658435]
 12   98,8 [03F0D6B1] [103D392C]
 13   98,8 [E8924D9A] [03B0FDC9]
 14   98,8 [BD6D67C9] [8B3F65B1]
#777Продолжительность: 00:44:11
Сквозь Закрытые Веки
Стеклянные Люди
Империя Зла
Белый Шум
Инферно
F20
Молчи!
Горизонты Снов
Один Час До Конца Света
Ответ Знает...
Багровый Рассвет
Я Слышу Голоса Миллионов
Код:
Код:
Exact Audio Copy V0.99 prebeta 5 from 4. May 2009

EAC extraction logfile from 1. November 2010, 9:53

Amatory / Инстинкт Обреченных

Used drive  : _NEC    DVD_RW ND-3520A   Adapter: 0  ID: 1

Read mode               : Secure
Utilize accurate stream : Yes
Defeat audio cache      : Yes
Make use of C2 pointers : No

Read offset correction                      : 48
Overread into Lead-In and Lead-Out          : No
Fill up missing offset samples with silence : Yes
Delete leading and trailing silent blocks   : No
Null samples used in CRC calculations       : Yes
Used interface                              : Native Win32 interface for Win NT & 2000

Used output format              : User Defined Encoder
Selected bitrate                : 128 kBit/s
Quality                         : High
Add ID3 tag                     : No
Command line compressor         : C:\Program Files\Exact Audio Copy\flac.exe
Additional command line options : -8 -V -T "ARTIST=%a" -T "TITLE=%t" -T "ALBUM=%g" -T "DATE=%y" -T "TRACKNUMBER=%n" -T "GENRE=%m" -T "COMMENT=EAC FLAC -8" %s

TOC of the extracted CD

     Track |   Start  |  Length  | Start sector | End sector
    ---------------------------------------------------------
        1  |  0:00.00 |  3:55.42 |         0    |    17666
        2  |  3:55.42 |  3:32.30 |     17667    |    33596
        3  |  7:27.72 |  4:06.61 |     33597    |    52107
        4  | 11:34.58 |  3:40.55 |     52108    |    68662
        5  | 15:15.38 |  3:40.21 |     68663    |    85183
        6  | 18:55.59 |  3:39.67 |     85184    |   101675
        7  | 22:35.51 |  3:45.72 |    101676    |   118622
        8  | 26:21.48 |  4:05.55 |    118623    |   137052
        9  | 30:27.28 |  3:08.35 |    137053    |   151187
       10  | 33:35.63 |  2:07.71 |    151188    |   160783
       11  | 35:43.59 |  3:31.03 |    160784    |   176611
       12  | 39:14.62 |  4:56.47 |    176612    |   198858

Range status and errors

Selected range

     Filename C:\Documents and Settings\Shunt\Мои документы\Downloads\Amatory - 2010 - Инстинкт Обреченных\Amatory - Инстинкт Обреченных.wav

     Peak level 98.8 %
     Range quality 100.0 %
     Test CRC 5A8E7CD9
     Copy CRC 5A8E7CD9
     Copy OK

No errors occurred

AccurateRip summary

Track  1  not present in database
Track  2  not present in database
Track  3  not present in database
Track  4  not present in database
Track  5  not present in database
Track  6  not present in database
Track  7  not present in database
Track  8  not present in database
Track  9  not present in database
Track 10  not present in database
Track 11  not present in database
Track 12  not present in database

None of the tracks are present in the AccurateRip database

End of status report
Код:
Код:
REM GENRE Death Metal / Hardcore
REM DATE 2010
REM DISCID AC0A5B0C
REM COMMENT ExactAudioCopy v0.99pb5
PERFORMER "Amatory"
TITLE "Инстинкт Обреченных"
FILE "Amatory - Инстинкт Обреченных.flac" WAVE
  TRACK 01 AUDIO
    TITLE "Сквозь Закрытые Веки"
    INDEX 01 00:00:00
  TRACK 02 AUDIO
    TITLE "Стеклянные Люди"
    INDEX 01 03:55:42
  TRACK 03 AUDIO
    TITLE "Империя Зла"
    INDEX 01 07:27:72
  TRACK 04 AUDIO
    TITLE "Белый Шум"
    INDEX 01 11:34:58
  TRACK 05 AUDIO
    TITLE "Инферно"
    INDEX 01 15:15:38
  TRACK 06 AUDIO
    TITLE "F20"
    INDEX 01 18:55:59
  TRACK 07 AUDIO
    TITLE "Молчи!"
    INDEX 01 22:35:51
  TRACK 08 AUDIO
    TITLE "Горизонты Снов"
    INDEX 01 26:21:48
  TRACK 09 AUDIO
    TITLE "Один Час До Конца Света"
    INDEX 01 30:27:28
  TRACK 10 AUDIO
    TITLE "Ответ Знает..."
    INDEX 01 33:35:63
  TRACK 11 AUDIO
    TITLE "Багровый Рассвет"
    INDEX 01 35:43:59
  TRACK 12 AUDIO
    TITLE "Я Слышу Голоса Миллионов"
    INDEX 01 39:14:62
Код:
Код:
-----------------------

DON'T MODIFY THIS FILE

-----------------------

PERFORMER: auCDtect Task Manager, ver. 1.5.1RC4 build 1.5.1.5
Copyright (c) 2008-2010 y-soft. All rights reserved
http:/y-soft.org

ANALYZER: auCDtect: CD records authenticity detector, version 0.8.2
Copyright (c) 2004 Oleg Berngardt. All rights reserved.
Copyright (c) 2004 Alexander Djourik. All rights reserved.

FILE: Amatory - Инстинкт Обреченных.flac
  Size: 334870249 Hash: 16C4CFA98BAAF797BE3869101471A0CE Accuracy: -m0
  Conclusion: CDDA 100%
  Signature: A2705A92729D252638A90C001C504B1814F67B9F
Код:
Код:
[CUETools log; Date: 2012-10-03 23:21:41; Version: 2.1.2a]
[AccurateRip ID: 0013ddfe-00b84c69-ac0a5b0c] found.
Track   [ CRC    ] Status
 01     [d0d55821] (0/0) No match but offset
 02     [34a0d4c7] (0/0) No match but offset
 03     [d162b40c] (0/0) No match but offset
 04     [d03008a8] (0/0) No match but offset
 05     [e8432c17] (0/0) No match but offset
 06     [adca29fd] (0/0) No match but offset
 07     [eb3fc6a4] (0/0) No match but offset
 08     [c5ee1aa8] (0/0) No match but offset
 09     [ed1027dc] (0/0) No match but offset
 10     [266b2049] (0/0) No match but offset
 11     [3edbfd6f] (0/0) No match but offset
 12     [d62fba44] (0/0) No match but offset

Track Peak [ CRC32  ] [W/O NULL] [  LOG   ]
 --   98,8 [5A8E7CD9] [12F705DE]   CRC32
 01   98,8 [DCFEDC14] [6EC2B7E2]
 02   98,8 [32DB9691] [5D6D7DB3]
 03   98,8 [B9D086F3] [401C8597]
 04   98,8 [D4979027] [BB2F87C1]  05   98,8 [638CFDA7] [4B12431B]
 06   98,8 [AE230380] [753B43DF]
 07   98,8 [9CEBFB2A] [A1D28E7F]
 08   98,8 [0B9E12C7] [D2B6E641]
 09   98,8 [180E4622] [6EB6A921]
 10   98,8 [9B61767D] [D1E5C0F1]
 11   98,8 [EA096387] [A70E48D7]
 12   98,8 [4D8F40AA] [A8A9D498]
Если есть спойлер с логом AccurateRip'а - значит образ собирался из потрекового / проверялся при помощи CUETools.

Время раздачи: с 22:00 до ~8:00 (польское время) + периодически днём
Источник: известный трекер, с которого всё собиралось, переименовывалось, клеилось в образы, облепливалось тегами и прочее-прочее)
Правила, инструкции, FAQ!!!
Торрент  Добавлен [27 июн 2014, 08:07] Скачать торрент Магнет ссылка
Скачать торрент
[ Размер 105.91 КБ / Просмотров 361 ]

Статус
Проверен 
 
Размер  1.98 ГБ
Приватный: Нет (DHT включён)
.torrent скачан  4
Как залить торрент? | Как скачать Torrent? | Ошибка в торренте? Качайте магнет  


     Отправить личное сообщение
   

СообщениеДобавлено: 02 окт 2019, 01:00 

Ответить с цитатой 

Зарегистрированные пользователи
Зарегистрированные пользователи

Стаж: 16 дней
Раздал: 0 байт
Скачал: 0 байт
Ратио: Inf.
Торренты: 0
Спасибо!
Не хватает альбома "2004 - Две Жизни".


Профиль     Отправить личное сообщение
   

СообщениеДобавлено: 02 окт 2019, 10:09 

Ответить с цитатой 

Администратор
Администратор
Аватара пользователя

Стаж: 7 лет 2 дня
Раздал: 290.91 ГБ
Скачал: 158.38 ГБ
Ратио: 1.837
Торренты: 13
Добавлено отдельной раздачей http://waspeer.info/alternative-metal-d ... 07637.html

_________________
Не скачивается раздача? напишите об этом в теме!


Профиль     Отправить личное сообщение
   
Страница 1 из 1
Показать сообщения за:  Поле сортировки  
Начать новую тему Ответить на тему


Сейчас этот форум просматривают: нет зарегистрированных пользователей и гости: 0


Вы не можете начинать темы
Вы не можете отвечать на сообщения
Вы не можете редактировать свои сообщения
Вы не можете удалять свои сообщения
Вы не можете добавлять вложения

Перейти:  
Ресурс не предоставляет электронные версии произведений, а занимается лишь коллекционированием и каталогизацией ссылок, присылаемых и публикуемых на форуме нашими читателями. Если вы являетесь правообладателем какого-либо представленного материала и не желаете чтобы ссылка на него находилась в нашем каталоге, свяжитесь с нами и мы незамедлительно удалим её. Файлы для обмена на трекере предоставлены пользователями сайта, и администрация не несёт ответственности за их содержание. Просьба не заливать файлы, защищенные авторскими правами, а также файлы нелегального содержания!
cron