Начать новую тему Ответить на тему
Статистика раздачи
Размер: 1.06 ГБ | Добавлен: 08 июн 2019, 08:57 | Скачали: 2
Сидеров: 11  [0 байт/сек]    Личеров: 2  [0 байт/сек]
Пред. тема | След. тема 

Автор
Сообщение

СообщениеДобавлено: 08 июн 2019, 08:57 

Ответить с цитатой 

Amanda Mole / Alain, Bach, Bruhns, Buxtehude, Messiaen, Muhly, Reger - Organ Laureate
Формат записи/Источник записи: [TR24][OF]
Наличие водяных знаков: Нет
Год издания/переиздания диска: 2019
Жанр: Classical
Издатель (лейбл): Naxos
Продолжительность: 00:59:44
Наличие сканов в содержимом раздачи: Буклет PDF
Треклист:
01. Buxtehude: Praeludium in G minor, BuxWV149 9:24
02. Alain: Variations sur un thème de Clément Jannequin 6:04
Reger: Organ Pieces (9), Op. 129 8:45
03. No. 1, Toccata in D Minor 2:55
04. No. 3, Kanon in E Minor 2:35
05. No. 6, Basso ostinato in G Minor 3:15
06. Bruhns: Chorale Fantasia on 'Nun Komm der Heiden Heiland' 11:07
07. Bach, J S: Prelude & Fugue in D major, BWV532 11:58
08. Muhly: The Revd Mustard His Installation Prelude 3:22
09. Messiaen: La Nativité du Seigneur - IX. Dieu parmi nous 9:04
Amanda Mole (organ)
Контейнер: FLAC (*.flac)
Тип рипа: tracks
Разрядность: 24/96
Формат: PCM
Количество каналов: 2.0
Код:
foobar2000 1.4.3 / Dynamic Range Meter 1.1.1
log date: 2019-06-07 21:44:48
--------------------------------------------------------------------------------
Analyzed: Amanda Mole / Reger, J.S. Bach, Messiaen & Others: Works for Organ
--------------------------------------------------------------------------------
DR         Peak         RMS     Duration Track
--------------------------------------------------------------------------------
DR12      -1.52 dB   -18.75 dB      9:25 01-Prelude in G Minor, BuxWV 149
DR10     -14.72 dB   -28.23 dB      6:05 02-Variations sur un thème de Clément Jannequin, AWV 99
DR11      -0.82 dB   -18.65 dB      2:56 03-9 Pieces, Op. 129: No. 1, Toccata in D Minor
DR9      -11.94 dB   -25.50 dB      2:36 04-9 Pieces, Op. 129: No. 3, Kanon in E Minor
DR11      -4.63 dB   -21.98 dB      3:15 05-9 Pieces, Op. 129: No. 6, Basso ostinato in G Minor
DR13      -8.25 dB   -24.61 dB     11:08 06-Nun komm, der Heiden Heiland
DR12      -2.85 dB   -19.58 dB     11:58 07-Prelude & Fugue in D Major, BWV 532
DR10     -12.55 dB   -25.31 dB      3:23 08-The Revd Mustard His Installation Prelude
DR12      -0.44 dB   -18.18 dB      9:04 09-La nativité du Seigneur, I/14: IX. Dieu parmi nous
--------------------------------------------------------------------------------
Number of tracks:  9
Official DR value: DR11
Samplerate:        96000 Hz
Channels:          2
Bits per sample:   24
Bitrate:           2666 kbps
Codec:             FLAC
================================================================================
Источник (релизер): https://www.prestomusic.com/classical/products/8546860--organ-laureate#related
Правила, инструкции, FAQ!!!
Торрент  Добавлен [08 июн 2019, 08:57] Скачать торрент Магнет ссылка
Скачать торрент
[ Размер 43.76 КБ / Просмотров 11 ]

Статус
Проверен 
 
Размер  1.06 ГБ
Приватный: Нет (DHT включён)
.torrent скачан  2
Как залить торрент? | Как скачать Torrent? | Ошибка в торренте? Качайте магнет  


     Отправить личное сообщение
   
Страница 1 из 1
Показать сообщения за:  Поле сортировки  
Начать новую тему Ответить на тему


Сейчас этот форум просматривают: нет зарегистрированных пользователей и гости: 0


Вы не можете начинать темы
Вы не можете отвечать на сообщения
Вы не можете редактировать свои сообщения
Вы не можете удалять свои сообщения
Вы не можете добавлять вложения

Перейти:  
Ресурс не предоставляет электронные версии произведений, а занимается лишь коллекционированием и каталогизацией ссылок, присылаемых и публикуемых на форуме нашими читателями. Если вы являетесь правообладателем какого-либо представленного материала и не желаете чтобы ссылка на него находилась в нашем каталоге, свяжитесь с нами и мы незамедлительно удалим её. Файлы для обмена на трекере предоставлены пользователями сайта, и администрация не несёт ответственности за их содержание. Просьба не заливать файлы, защищенные авторскими правами, а также файлы нелегального содержания!
cron