Начать новую тему Ответить на тему
Статистика раздачи
Размер: 13.25 ГБ | Добавлен: 08 окт 2017, 02:10 | Скачали: 34
Сидеров: 141  [0 байт/сек]    Личеров: 4  [0 байт/сек]
Пред. тема | След. тема 

Автор
Сообщение

СообщениеДобавлено: 08 окт 2017, 02:10 

Ответить с цитатой 

Александр Свет | Capture One Pro. Профессиональная обработка RAW (2017) PCRec

Автор (режиссер): Александр Свет
Жанр: Обработка фото

Описание:
Курс «Capture One Pro. Профессиональная обработка RAW» направлен на глубокое освоение программы: от описания инструментов и эффективных приемов обработки, до сложной работы с RAW.
В Capture One Pro работают тысячи западных профессиональных фотографов. Зачастую к обработке в Capture One Pro приходят фотографы, которых не устраивает работа с цветом в Adobe Lightroom и других RAW-конвертерах. Попробуйте этот замечательный продукт.
Курс «Capture One Pro. Профессиональная обработка RAW» состоит из 8 занятий, каждое из которых раскрывает определенную особенность работы в программе: от каталогизации фотографий, функционала всех инструментов обработки, возможностей для работы с цветом и экспозицией до профессиональных приемов обработки RAW. Вы научитесь осмысленно обрабатывать фотографии и узнаете, каким образом можно раскрыть весь потенциал кадра, заложенный в формате RAW.

Продолжительность: 16:24:12
Качество видео: PCRec

Видео: AVC/H.264, 1920x1080, ~1 248 kb/s
Аудио: AAC, 2 ch, 303 kb/s
Код:
General
Александр Свет - Capture One Pro. Профессиональная обработка RAW (2017)\3\1 часть.mp4
Format                      : MPEG-4
Format profile              : Base Media
Codec ID                    : isom (isom/iso2/avc1/mp41)
File size                   : 651 MiB
Duration                    : 58 min 20 s
Overall bit rate            : 1 559 kb/s
Writing application         : Lavf57.25.100

Video
ID                          : 1
Format                      : AVC
Format/Info                 : Advanced Video Codec
Format profile              : High@L4
Format settings, CABAC      : Yes
Format settings, ReFrames   : 4 frames
Format settings, GOP        : M=4, N=24
Codec ID                    : avc1
Codec ID/Info               : Advanced Video Coding
Duration                    : 58 min 20 s
Bit rate                    : 1 248 kb/s
Width                       : 1 920 pixels
Height                      : 1 080 pixels
Display aspect ratio        : 16:9
Frame rate mode             : Constant
Frame rate                  : 24.000 FPS
Color space                 : YUV
Chroma subsampling          : 4:2:0
Bit depth                   : 8 bits
Scan type                   : Progressive
Bits/(Pixel*Frame)          : 0.025
Stream size                 : 521 MiB (80%)

Audio
ID                          : 2
Format                      : AAC
Format/Info                 : Advanced Audio Codec
Format profile              : LC
Codec ID                    : 40
Duration                    : 58 min 19 s
Bit rate mode               : Constant
Bit rate                    : 303 kb/s
Channel(s)                  : 2 channels
Channel positions           : Front: L R
Sampling rate               : 44.1 kHz
Frame rate                  : 43.066 FPS (1024 spf)
Compression mode            : Lossy
Stream size                 : 126 MiB (19%)
Language                    : unk
Default                     : Yes
Alternate group             : 1

Скриншоты:



Время раздачи: С 10:00 до 00:00 (до появления первых 3-5 скачавших)
Правила, инструкции, FAQ!!!
Торрент  Добавлен [08 окт 2017, 02:10] Скачать торрент Магнет ссылка
Скачать торрент
[ Размер 69.95 КБ / Просмотров 568 ]

Статус
Проверен 
 
Размер  13.25 ГБ
Приватный: Нет (DHT включён)
.torrent скачан  34
Как залить торрент? | Как скачать Torrent? | Ошибка в торренте? Качайте магнет  


     Отправить личное сообщение
   
Страница 1 из 1
Показать сообщения за:  Поле сортировки  
Начать новую тему Ответить на тему


Сейчас этот форум просматривают: нет зарегистрированных пользователей и гости: 0


Вы не можете начинать темы
Вы не можете отвечать на сообщения
Вы не можете редактировать свои сообщения
Вы не можете удалять свои сообщения
Вы не можете добавлять вложения

Перейти:  
Ресурс не предоставляет электронные версии произведений, а занимается лишь коллекционированием и каталогизацией ссылок, присылаемых и публикуемых на форуме нашими читателями. Если вы являетесь правообладателем какого-либо представленного материала и не желаете чтобы ссылка на него находилась в нашем каталоге, свяжитесь с нами и мы незамедлительно удалим её. Файлы для обмена на трекере предоставлены пользователями сайта, и администрация не несёт ответственности за их содержание. Просьба не заливать файлы, защищенные авторскими правами, а также файлы нелегального содержания!
cron