Начать новую тему Ответить на тему
Статистика раздачи
Размер: 977.61 МБ | Добавлен: 08 июн 2019, 08:56 | Скачали: 1
Сидеров: 0  [0 байт/сек]    Личеров: 0  [0 байт/сек]
Пред. тема | След. тема 

Автор
Сообщение

СообщениеДобавлено: 08 июн 2019, 08:56 

Ответить с цитатой 

Huelgas Ensemble, Paul van Nevel / Agricola, Encina, Ponce, Torre, Triana, Tromboncino - The Ear of Christopher Columbus
Формат записи/Источник записи: [TR24][OF]
Наличие водяных знаков: Нет
Год издания/переиздания диска: 2019
Жанр: Classical
Издатель (лейбл): Deutsche HM
Продолжительность: 00:58:18
Наличие сканов в содержимом раздачи: Буклет PDF
Треклист:
01. anon.: Visin, visin, visin à 4 2:35
02. anon.: Da pacem Domine à 4 4:51
03. Tromboncino: Se ben or non scopri à 4 2:35
04. anon.: Rio de Sevilla à 2:28
05. Triana: De mi perdida esperança à 3 6:15
06. anon.: Tres morillas m'enamoran à 3 2:02
07. Ponce, J: Allá se me ponga el sol à 4 2:55
08. Francisco Millan: Los braços trayo cansados à 2 & 3 2:52
09. Alonso: La tricotea à 3 3:26
10. Agricola, A: Malheur me bat: Agnus Dei à 4 8:02
11. Encina: Amor con fortuna à 4 3:29
12. Mabrianus de Orto: J'ay pris amours: Sanctus à 4 6:57
13. Mabrianus de Orto: J'ay pris amours: Agnus Dei à 4 6:53
14. Torre, F: Dime, triste coraçon à 2,3 & 4 2:58
Paul Van Nevel
Huelgas-Ensemble
Контейнер: FLAC (*.flac)
Тип рипа: tracks
Разрядность: 24/96
Формат: PCM
Количество каналов: 2.0
Код:
foobar2000 1.4.3 / Dynamic Range Meter 1.1.1
log date: 2019-05-27 17:28:43
--------------------------------------------------------------------------------
Analyzed: Huelgas Ensemble / The Ear of Christopher Columbus
--------------------------------------------------------------------------------
DR         Peak         RMS     Duration Track
--------------------------------------------------------------------------------
DR12      -3.32 dB   -20.72 dB      2:36 01-Visin, visin, visin à 4
DR13      -5.01 dB   -23.14 dB      4:51 02-Da pacem Domine à 4
DR13      -6.27 dB   -24.70 dB      2:36 03-Se ben or non scopri à 4
DR14      -5.81 dB   -24.44 dB      2:28 04-Rio de Sevilla à
DR13      -9.41 dB   -29.20 dB      6:16 05-De mi perdida esperança à 3
DR14      -7.73 dB   -26.62 dB      2:02 06-Tres morillas m'enamoran à 3
DR13     -16.20 dB   -34.49 dB      2:55 07-Allá se me ponga el sol à 4
DR13      -8.60 dB   -26.69 dB      2:52 08-Los braços trayo cansados à 2 & 3
DR14      -1.37 dB   -22.19 dB      3:26 09-La tricotea à 3
DR13      -8.86 dB   -27.20 dB      8:02 10-Malheur me bat: Agnus Dei à 4
DR13     -20.41 dB   -36.95 dB      3:30 11-Amor con fortuna à 4
DR13      -4.16 dB   -23.49 dB      6:57 12-J'ay pris amours: Sanctus à 4
DR13      -4.40 dB   -23.48 dB      6:54 13-J'ay pris amours: Agnus Dei à 4
DR12     -15.59 dB   -32.69 dB      2:59 14-Dime, triste coraçon à 2,3 & 4
--------------------------------------------------------------------------------
Number of tracks:  14
Official DR value: DR13
Samplerate:        96000 Hz
Channels:          2
Bits per sample:   24
Bitrate:           2162 kbps
Codec:             FLAC
================================================================================
Источник (релизер): https://www.prestomusic.com/classical/products/8615886--the-ear-of-christopher-columbus
Правила, инструкции, FAQ!!!
Торрент  Добавлен [08 июн 2019, 08:56] Скачать торрент Магнет ссылка
Скачать торрент
[ Размер 39.7 КБ / Просмотров 6 ]

Статус
Проверен 
 
Размер  977.61 МБ
Приватный: Нет (DHT включён)
.torrent скачан  1
Как залить торрент? | Как скачать Torrent? | Ошибка в торренте? Качайте магнет  


     Отправить личное сообщение
   
Страница 1 из 1
Показать сообщения за:  Поле сортировки  
Начать новую тему Ответить на тему


Сейчас этот форум просматривают: нет зарегистрированных пользователей и гости: 1


Вы не можете начинать темы
Вы не можете отвечать на сообщения
Вы не можете редактировать свои сообщения
Вы не можете удалять свои сообщения
Вы не можете добавлять вложения

Перейти:  
Ресурс не предоставляет электронные версии произведений, а занимается лишь коллекционированием и каталогизацией ссылок, присылаемых и публикуемых на форуме нашими читателями. Если вы являетесь правообладателем какого-либо представленного материала и не желаете чтобы ссылка на него находилась в нашем каталоге, свяжитесь с нами и мы незамедлительно удалим её. Файлы для обмена на трекере предоставлены пользователями сайта, и администрация не несёт ответственности за их содержание. Просьба не заливать файлы, защищенные авторскими правами, а также файлы нелегального содержания!