Начать новую тему Ответить на тему
Статистика раздачи
Размер: 5.12 ГБ | Добавлен: 10 сен 2019, 23:25 | Скачали: 0
Сидеров: 0  [0 байт/сек]    Личеров: 0  [0 байт/сек]
Пред. тема | След. тема 

Автор
Сообщение

СообщениеДобавлено: 10 сен 2019, 23:25 

Ответить с цитатой 


Adam Lambert



Жанр: Rock, Pop
Продолжительность: 00:51:06
Год выпуска: 2019
Качество: HDTV
Разрешение видео/развертка: 720p
Контейнер: MKV
Видео кодек: H.264
Аудио кодек: MP2
Видео: MPEG4 Video (H264) 1280x720 59.94fps 14.0 Mb/s
Аудио: MPEG Audio 48000Hz stereo 320kbps

За сценой / Репетиция / Полное представление
New Eyes
Comin in Hot
Another One Bites the Dust
I Want to Break Free
Whataya Want from Me
Comin in Hot
Код:
General
Unique ID                      : 261787560441835746024396228317314694508 (0xC4F2733E7DF072DB7845027A621E3D6C)
Complete name                  : F:\Adam Lambert - Good Morning America Summer Concert Series 2019 (feed).mkv
Format                         : Matroska
Format version                 : Version 4
File size                      : 5.12 GiB
Duration                       : 51 min 6 s
Overall bit rate mode          : Constant
Overall bit rate               : 14.4 Mb/s
Encoded date                   : UTC 2019-09-03 06:59:00
Writing application            : mkvmerge v37.0.0 ('Leave It') 64-bit
Writing library                : libebml v1.3.9 + libmatroska v1.5.2
Video
ID                             : 1
Format                         : AVC
Format/Info                    : Advanced Video Codec
Format profile                 : Baseline@L4.1
Format settings                : 2 Ref Frames
Format settings, CABAC         : No
Format settings, Reference fra : 2 frames
Format settings, GOP           : M=3, N=12
Codec ID                       : V_MPEG4/ISO/AVC
Duration                       : 51 min 6 s
Bit rate mode                  : Constant
Bit rate                       : 14.0 Mb/s
Width                          : 1 280 pixels
Height                         : 720 pixels
Display aspect ratio           : 16:9
Frame rate mode                : Constant
Frame rate                     : 59.940 (59940/1000) FPS
Original frame rate            : 59.940 (60000/1001) FPS
Color space                    : YUV
Chroma subsampling             : 4:2:0
Bit depth                      : 8 bits
Scan type                      : Progressive
Bits/(Pixel*Frame)             : 0.254
Stream size                    : 5.01 GiB (98%)
Default                        : No
Forced                         : No
Color range                    : Limited
Color primaries                : BT.709
Transfer characteristics       : BT.709
Matrix coefficients            : BT.709
Audio
ID                             : 2
Format                         : MPEG Audio
Format version                 : Version 1
Format profile                 : Layer 2
Codec ID                       : A_MPEG/L2
Codec ID/Hint                  : MP2
Duration                       : 51 min 6 s
Bit rate mode                  : Constant
Bit rate                       : 320 kb/s
Channel(s)                     : 2 channels
Sampling rate                  : 48.0 kHz
Frame rate                     : 41.667 FPS (1152 SPF)
Compression mode               : Lossy
Stream size                    : 117 MiB (2%)
Language                       : English
Default                        : Yes
Forced                         : No
Правила, инструкции, FAQ!!!
Торрент  Добавлен [10 сен 2019, 23:25] Скачать торрент Магнет ссылка
Скачать торрент
[ Размер 13.3 КБ / Просмотров 5 ]

Статус
Проверен 
 
Размер  5.12 ГБ
Приватный: Нет (DHT включён)
.torrent скачан  0
Как залить торрент? | Как скачать Torrent? | Ошибка в торренте? Качайте магнет  


     Отправить личное сообщение
   
Страница 1 из 1
Показать сообщения за:  Поле сортировки  
Начать новую тему Ответить на тему


Сейчас этот форум просматривают: нет зарегистрированных пользователей и гости: 0


Вы не можете начинать темы
Вы не можете отвечать на сообщения
Вы не можете редактировать свои сообщения
Вы не можете удалять свои сообщения
Вы не можете добавлять вложения

Перейти:  
Ресурс не предоставляет электронные версии произведений, а занимается лишь коллекционированием и каталогизацией ссылок, присылаемых и публикуемых на форуме нашими читателями. Если вы являетесь правообладателем какого-либо представленного материала и не желаете чтобы ссылка на него находилась в нашем каталоге, свяжитесь с нами и мы незамедлительно удалим её. Файлы для обмена на трекере предоставлены пользователями сайта, и администрация не несёт ответственности за их содержание. Просьба не заливать файлы, защищенные авторскими правами, а также файлы нелегального содержания!